Other

WALT DISNEYS FOX&THE HOUND+covers&subs [DVDRIP][ENG] KIDZCORNER&J T R

  • Download 5x Faster
  • Download torrent
  • Direct Download
  • Rate this torrent +  |  -
WALT DISNEYS FOX&THE HOUND+covers&subs [DVDRIP][ENG] KIDZCORNER&J T R

Free and Direct Download with Usenet 300GB+ free


Torrent info

Name:WALT DISNEYS FOX&THE HOUND+covers&subs [DVDRIP][ENG] KIDZCORNER&J T R

Total Size: 698.93 MB

Magnet: Magnet Link

Seeds: 1

Leechers: 0

Stream: Watch Online @ Movie4u

Last Updated: 2015-09-05 19:48:55 (Update Now)

Torrent added: 2009-09-01 06:54:56




Torrent Files List


759312_DV_L_B.JPG (Size: 698.93 MB) (Files: 7)

 759312_DV_L_B.JPG

32.65 KB

 759312_DV_L_F.JPG

28.28 KB

 [AllCDCovers]_the_fox_and_the_hound_1981_r0_custom_dvd-cd.jpg

309.42 KB

 fox1.avi

698.52 MB

 The Fox and the Hound.srt

46.88 KB

 Torrent downloaded from Demonoid.com.txt

0.05 KB

 Tracked by moviesb4time.biz.txt

1.35 KB
 

tracker

leech seeds
 

Torrent description

Featuring lovable characters, brilliant animation and heartwarming messages, Disney's classic tale about an unlikely friendship in now available as a Special Edition.

When a feisty little fox named Tod is adopted into a farm family, he quickly becomes friends with a fun and adorable hound puppy named Copper. Life is full of hilarious adventures until Copper is expected to take on his role as a hunting dog - and the object of his search is his best friend!

General
Complete name : C:\Users\joker\Documents\WALT DISNEYS FOX&THE HOUND+covers&subs-[DVDRIP][ENG]-KIDZCORNER&J.T.R\fox1.avi
Format : AVI
Format/Info : Audio Video Interleave
File size : 699 MiB
Duration : 1h 19mn
Overall bit rate : 1 231 Kbps
Writing application : FairUse Wizard - http://fairusewizard.com
Writing library : The best and REALLY easy backup tool

Video
Format : MPEG-4 Visual
Format profile : Streaming [email protected]
Format settings, BVOP : Yes
Format settings, QPel : No
Format settings, GMC : No warppoints
Format settings, Matrix : Default
Muxing mode : Packed bitstream
Codec ID : XVID
Codec ID/Hint : XviD
Duration : 1h 19mn
Bit rate : 1 094 Kbps
Width : 576 pixels
Height : 416 pixels
Display aspect ratio : 1.385
Frame rate : 25.000 fps
Resolution : 24 bits
Colorimetry : 4:2:0
Scan type : Progressive
Bits/(Pixel*Frame) : 0.183
Stream size : 620 MiB (89%)
Writing library : XviD 1.2.0.dev47 (UTC 2006-11-01)

Audio
Format : MPEG Audio
Format version : Version 1
Format profile : Layer 3
Codec ID : 55
Codec ID/Hint : MP3
Duration : 1h 19mn
Bit rate mode : Constant
Bit rate : 128 Kbps
Minimum bit rate : 128 Kbps
Channel(s) : 2 channels
Sampling rate : 48.0 KHz
Resolution : 16 bits
Stream size : 72.6 MiB (10%)
Alignment : Aligned on interleaves
Interleave, duration : 40 ms (1.00 video frame)
Interleave, preload duration : 504 ms
Writing library : LAME3.97
Encoding settings : CBR

related torrents

Torrent name

health leech seeds Size
 

comments (0)

Main Menu