Other

WALT DISNEYS FOX AND THE HOUND 2+covers&subs [DVDRIP][ENG] KIDZCORNER&J T R

  • Download 5x Faster
  • Download torrent
  • Direct Download
  • Rate this torrent +  |  -
WALT DISNEYS FOX AND THE HOUND 2+covers&subs [DVDRIP][ENG] KIDZCORNER&J T R

Free and Direct Download with Usenet.nl 300GB+ free


Torrent info

Name:WALT DISNEYS FOX AND THE HOUND 2+covers&subs [DVDRIP][ENG] KIDZCORNER&J T R

Total Size: 635.99 MB

Magnet: Magnet Link

Seeds: 0

Leechers: 0

Stream: Watch Online @ Movie4u

Last Updated: 0000-00-00 00:00:00 (Update Now)

Torrent added: 2009-09-01 06:54:51





Torrent Files List


fath 2 (Size: 635.99 MB) (Files: 8)

 fath 2

  TITLE21.avi

634.25 MB

 759313_DV_L_B.JPG

32.78 KB

 759313_DV_L_F.JPG

28.73 KB

 [AllCDCovers]_the_fox_and_the_hound_2_2007_r1_retail_dvd-front.jpg

1.46 MB

 The.Fox.And.The.Hound.2..srt

49.02 KB

 The_Fox_And_The_Hound_2_custom-[cdcovers_cc]-cd1.jpg

174.69 KB

 Torrent downloaded from Demonoid.com.txt

0.05 KB

 Tracked by moviesb4time.biz.txt

1.35 KB
 

Announce URL:

Torrent description



With Disney's all-new movie The Fox & The Hound 2, the music is centre stage in this brand new tale of friendship and loyalty.
Tod and Cooper still go together like an itch and a scratch, but when Cooper gets a shot at the big time with a nutty group of hound dog howlers, their pure bred friendship is put to the test.

Experience an irresistible adventure bursting with original music and steller voice talent. The Fox & The Hound 2 combines music and comedy in perfect harmony.

General
Complete name : C:\Users\joker\Documents\WALT DISNEYS FOX AND THE HOUND 2+covers&subs-[DVDRIP][ENG]-KIDZCORNER&J.T.R\fath 2\TITLE21.avi
Format : AVI
Format/Info : Audio Video Interleave
File size : 634 MiB
Duration : 1h 6mn
Overall bit rate : 1 333 Kbps

Video
Format : MPEG-4 Visual
Format profile : [email protected]
Format settings, BVOP : No
Format settings, QPel : No
Format settings, GMC : No warppoints
Format settings, Matrix : Default
Codec ID : XVID
Codec ID/Hint : XviD
Duration : 1h 6mn
Bit rate : 1 193 Kbps
Width : 640 pixels
Height : 360 pixels
Display aspect ratio : 16/9
Frame rate : 25.000 fps
Resolution : 24 bits
Colorimetry : 4:2:0
Scan type : Progressive
Bits/(Pixel*Frame) : 0.207
Stream size : 568 MiB (89%)
Writing library : Magic0432

Audio
Format : MPEG Audio
Format version : Version 1
Format profile : Layer 3
Codec ID : 55
Codec ID/Hint : MP3
Duration : 1h 6mn
Bit rate mode : Constant
Bit rate : 128 Kbps
Channel(s) : 2 channels
Sampling rate : 44.1 KHz
Resolution : 16 bits
Stream size : 60.9 MiB (10%)
Alignment : Aligned on interleaves
Interleave, duration : 26 ms (0.65 video frame)
Writing library : LAME3.97

related torrents

Torrent name

health leech seeds Size
 

comments (0)

Main Menu