Other

WALT DISNEYS ATLANTIS[THE LOST EMPIRE][DVDRIP][ENG] KIDZCORNER&J T R

  • Download 5x Faster
  • Download torrent
  • Direct Download
  • Rate this torrent +  |  -
WALT DISNEYS ATLANTIS[THE LOST EMPIRE][DVDRIP][ENG] KIDZCORNER&J T R

Free and Direct Download with Usenet.nl 300GB+ free


Torrent info

Name:WALT DISNEYS ATLANTIS[THE LOST EMPIRE][DVDRIP][ENG] KIDZCORNER&J T R

Total Size: 699.07 MB

Magnet: Magnet Link

Seeds: 0

Leechers: 0

Stream: Watch Online @ Movie4u

Last Updated: 0000-00-00 00:00:00 (Update Now)

Torrent added: 2009-09-01 06:54:27





Torrent Files List


460939_DV_L_B.JPG (Size: 699.07 MB) (Files: 5)

 460939_DV_L_B.JPG

38.21 KB

 460939_DV_L_F.JPG

32.37 KB

 ATL 1.avi

699.00 MB

 Torrent downloaded from Demonoid.com.txt

0.05 KB

 Tracked by moviesb4time.biz.txt

1.35 KB
 

Announce URL:

Torrent description

Set your course for the adventure of a life time as Disney unlocks the mystery to the legendary lost empire of Atlantis in this thrilling, imaginative animated epic!
Driven to find the sunken mythical kingdom, a young adventurer named Milo discovers an ancient journal with clues to its hidden location. Along with a skilled yet quirky group of explorers led by the confident Commander Rourke, Milo boards the Ulysses, an amazing state-of-the-art submarine, for a risky expedition to the bottom of the sea. There, they discover a lost continent of supreme technology, mystical power and priceless riches. But when a surprise takeover plot surfaces, Milo's mission switches from finding Atlantis... to saving it...

General
Complete name : C:\Users\joker\Documents\WALT DISNEYS ATLANTIS[THE LOST EMPIRE][DVDRIP][ENG]-KIDZCORNER&J.T.R\ATL 1.avi
Format : AVI
Format/Info : Audio Video Interleave
File size : 699 MiB
Duration : 1h 31mn
Overall bit rate : 1 064 Kbps
Writing application : FairUse Wizard - http://fairusewizard.com
Writing library : The best and REALLY easy backup tool

Video
Format : MPEG-4 Visual
Format profile : Streaming [email protected]
Format settings, BVOP : Yes
Format settings, QPel : No
Format settings, GMC : No warppoints
Format settings, Matrix : Default
Muxing mode : Packed bitstream
Codec ID : XVID
Codec ID/Hint : XviD
Duration : 1h 31mn
Bit rate : 927 Kbps
Width : 528 pixels
Height : 384 pixels
Display aspect ratio : 1.375
Frame rate : 25.000 fps
Resolution : 24 bits
Colorimetry : 4:2:0
Scan type : Progressive
Bits/(Pixel*Frame) : 0.183
Stream size : 609 MiB (87%)
Writing library : XviD 1.2.0.dev47 (UTC 2006-11-01)

Audio
Format : MPEG Audio
Format version : Version 1
Format profile : Layer 3
Codec ID : 55
Codec ID/Hint : MP3
Duration : 1h 31mn
Bit rate mode : Constant
Bit rate : 128 Kbps
Minimum bit rate : 128 Kbps
Channel(s) : 2 channels
Sampling rate : 48.0 KHz
Resolution : 16 bits
Stream size : 84.1 MiB (12%)
Alignment : Aligned on interleaves
Interleave, duration : 40 ms (1.00 video frame)
Interleave, preload duration : 504 ms
Writing library : LAME3.97
Encoding settings : CBR

related torrents

Torrent name

health leech seeds Size
 

comments (0)

Main Menu