Other

WALT DISNEYS ATLANTIS 2[MILOS RETURN][DVDRIP][ENG] KIDZCORNER&J T R

  • Download 5x Faster
  • Download torrent
  • Direct Download
  • Rate this torrent +  |  -
WALT DISNEYS ATLANTIS 2[MILOS RETURN][DVDRIP][ENG] KIDZCORNER&J T R

Free and Direct Download with Usenet.nl 300GB+ free


Torrent info

Name:WALT DISNEYS ATLANTIS 2[MILOS RETURN][DVDRIP][ENG] KIDZCORNER&J T R

Total Size: 701.05 MB

Magnet: Magnet Link

Seeds: 13

Leechers: 4

Stream: Watch Online @ Movie4u

Last Updated: 0000-00-00 00:00:00 (Update Now)

Torrent added: 2009-09-01 06:54:23





Torrent Files List


513647_DV_L_B.JPG (Size: 701.05 MB) (Files: 5)

 513647_DV_L_B.JPG

41.89 KB

 513647_DV_L_F.JPG

42.98 KB

 ATL2.avi

700.96 MB

 Torrent downloaded from Demonoid.com.txt

0.05 KB

 Tracked by moviesb4time.biz.txt

1.35 KB
 

Announce URL: http://inferno.demonoid.com:3404/announce

Torrent description

The fearless explorers from Disney's hit animated movie, Atlantis: The Lost Empire, are back. During his initial expedition, Milo Thatch and company located the famous underwater city and rescued the mysterious kingdom and all its people. Now, Milo, Kida and their team gear up for more action when trouble surfaces above water, but they discover mystifying powers at work. From the dusty deserts of the Southwest to the icy heights of the Nordic mountains, the team's newest quest sets them against gigantic sea monsters, spectacular spirits and powerful legends. In the midst of their excursion, Kida discovers the awesome power of her city's enchanted crystals and, ultimately, must decide whether it is wiser to hide the Heart of Atlantis or share its light with the rest of the world. Hold your breath and get ready to dive into a world of excitement with all-new adventures of Atlantis.

General
Complete name : C:\Users\joker\Documents\WALT DISNEYS ATLANTIS 2[MILOS RETURN][DVDRIP][ENG]-KIDZCORNER&J.T.R\ATL2.avi
Format : AVI
Format/Info : Audio Video Interleave
File size : 701 MiB
Duration : 1h 17mn
Overall bit rate : 1 271 Kbps
Writing application : FairUse Wizard - http://fairusewizard.com
Writing library : The best and REALLY easy backup tool

Video
Format : MPEG-4 Visual
Format profile : Streaming [email protected]
Format settings, BVOP : Yes
Format settings, QPel : No
Format settings, GMC : No warppoints
Format settings, Matrix : Default
Muxing mode : Packed bitstream
Codec ID : XVID
Codec ID/Hint : XviD
Duration : 1h 17mn
Bit rate : 1 133 Kbps
Width : 624 pixels
Height : 368 pixels
Display aspect ratio : 1.696
Frame rate : 25.000 fps
Resolution : 24 bits
Colorimetry : 4:2:0
Scan type : Progressive
Bits/(Pixel*Frame) : 0.197
Stream size : 625 MiB (89%)
Writing library : XviD 1.2.0.dev47 (UTC 2006-11-01)

Audio
Format : MPEG Audio
Format version : Version 1
Format profile : Layer 3
Codec ID : 55
Codec ID/Hint : MP3
Duration : 1h 17mn
Bit rate mode : Constant
Bit rate : 128 Kbps
Minimum bit rate : 128 Kbps
Channel(s) : 2 channels
Sampling rate : 48.0 KHz
Resolution : 16 bits
Stream size : 70.6 MiB (10%)
Alignment : Aligned on interleaves
Interleave, duration : 40 ms (1.00 video frame)
Interleave, preload duration : 504 ms
Writing library : LAME3.97
Encoding settings : CBR

related torrents

Torrent name

health leech seeds Size
 

comments (0)

Main Menu