Other

WALT DISNEYS THE RESCUERS DOWN UNDER][DVDRIP][ENG] KIDZCORNER&J T R

  • Download 5x Faster
  • Download torrent
  • Direct Download
  • Rate this torrent +  |  -

Torrent info

Name:WALT DISNEYS THE RESCUERS DOWN UNDER][DVDRIP][ENG] KIDZCORNER&J T R

Total Size: 699.84 MB

Magnet: Magnet Link

Seeds: 0

Leechers: 0

Stream: Watch Online @ Movie4u

Last Updated: 2017-03-14 22:26:33 (Update Now)

Torrent added: 2009-09-01 06:54:17



VPN For Torrents

Torrent Files List


460155_DV_L_B.JPG (Size: 699.84 MB) (Files: 5)

 460155_DV_L_B.JPG

33.91 KB

 460155_DV_L_F.JPG

33.56 KB

 RDU.avi

699.78 MB

 Torrent downloaded from Demonoid.com-1.txt

0.05 KB

 Tracked by moviesb4time.biz.txt

1.35 KB
 

tracker

leech seeds
 

Torrent description

Bernard and Bianca, the world's bravest mice who captured your heart in The Rescuers, are back for a thrilling new rescue mission in Disney's
timeless animated Classic THE RESCUERS DOWN UNDER!
When a call for help arises from deep in Australia's outback, Bernard and Bianca hop on the wings of their trusty pal Wilbur and head down under. Alongside a crazy crew of local critters, including Jake, a fun-loving Kangaroo mouse, the two tiny heroes rush to the aid of a young boy struggling to save a great eagle from a ruthless poacher. But with danger at every turn and Bernard struggling for a chance to declare his love to Bianca, who knows what will happen next!

General
Complete name : C:\Users\joker\Documents\WALT DISNEYS -THE RESCUERS DOWN UNDER][DVDRIP][ENG]-KIDZCORNER&J.T.R\RDU.avi
Format : AVI
Format/Info : Audio Video Interleave
File size : 700 MiB
Duration : 1h 13mn
Overall bit rate : 1 323 Kbps
Writing application : FairUse Wizard - http://fairusewizard.com
Writing library : The best and REALLY easy backup tool

Video
Format : MPEG-4 Visual
Format profile : Streaming [email protected]
Format settings, BVOP : Yes
Format settings, QPel : No
Format settings, GMC : No warppoints
Format settings, Matrix : Default
Muxing mode : Packed bitstream
Codec ID : XVID
Codec ID/Hint : XviD
Duration : 1h 13mn
Bit rate : 1 185 Kbps
Width : 656 pixels
Height : 384 pixels
Display aspect ratio : 16/9
Frame rate : 25.000 fps
Resolution : 24 bits
Colorimetry : 4:2:0
Scan type : Progressive
Bits/(Pixel*Frame) : 0.188
Stream size : 627 MiB (90%)
Writing library : XviD 1.2.0.dev47 (UTC 2006-11-01)

Audio
Format : MPEG Audio
Format version : Version 1
Format profile : Layer 3
Codec ID : 55
Codec ID/Hint : MP3
Duration : 1h 13mn
Bit rate mode : Constant
Bit rate : 128 Kbps
Minimum bit rate : 128 Kbps
Channel(s) : 2 channels
Sampling rate : 48.0 KHz
Resolution : 16 bits
Stream size : 67.7 MiB (10%)
Alignment : Aligned on interleaves
Interleave, duration : 40 ms (1.00 video frame)
Interleave, preload duration : 504 ms
Writing library : LAME3.97
Encoding settings : CBR

related torrents

Torrent name

health leech seeds Size
 


comments (0)

Main Menu