Other

WALT DISNEYS TARZAN&JANE[DVDRIP][ENG] KIDZCORNER&J T R

  • Download 5x Faster
  • Download torrent
  • Direct Download
  • Rate this torrent +  |  -
WALT DISNEYS TARZAN&JANE[DVDRIP][ENG] KIDZCORNER&J T R

Free and Direct Download with Usenet.nl 300GB+ free


Torrent info

Name:WALT DISNEYS TARZAN&JANE[DVDRIP][ENG] KIDZCORNER&J T R

Total Size: 699.92 MB

Magnet: Magnet Link

Seeds: 0

Leechers: 0

Stream: Watch Online @ Movie4u

Last Updated: 2015-09-04 07:03:03 (Update Now)

Torrent added: 2009-09-01 06:54:12





Torrent Files List


472304_DV_L_B.JPG (Size: 699.92 MB) (Files: 5)

 472304_DV_L_B.JPG

39.81 KB

 472304_DV_L_F.JPG

41.76 KB

 T&J.avi

699.84 MB

 Torrent downloaded from Demonoid.com-1.txt

0.05 KB

 Tracked by moviesb4time.biz.txt

1.35 KB
 

Announce URL:

Torrent description

The legend of Disney's Tarzan continues in Tarzan & Jane, an all-new movie packed with action, suspense, toe-tapping new music and all your favourite characters.
As Tarzan and Jane celebrate their first year of life together in the jungle, Jane searches for the perfect gift for Tarzan, even enlisting the help of the hilarious Terk and Tantor. As they recall the many adventures they've shared so far, Jane realises what an exciting year it's been in the jungle: from encounters with old friends and new foes to outsmarting prowling panthers to surfing the lava down an erupting volcano. Even though they come from different worlds, Tarzan and Jane discover that as a team, they can't be beat!
Featuring a new duet of the hit song "Two Worlds," by Phil Collins and a special guest, Disney's Tarzan & Jane swings with fun, emotion and adventure the whole family will love.

General
Complete name : C:\Users\joker\Documents\WALT DISNEYS -TARZAN&JANE[DVDRIP][ENG]-KIDZCORNER&J.T.R\T&J.avi
Format : AVI
Format/Info : Audio Video Interleave
File size : 700 MiB
Duration : 1h 12mn
Overall bit rate : 1 353 Kbps
Writing application : FairUse Wizard - http://fairusewizard.com
Writing library : The best and REALLY easy backup tool

Video
Format : MPEG-4 Visual
Format profile : Streaming [email protected]
Format settings, BVOP : Yes
Format settings, QPel : No
Format settings, GMC : No warppoints
Format settings, Matrix : Default
Muxing mode : Packed bitstream
Codec ID : XVID
Codec ID/Hint : XviD
Duration : 1h 12mn
Bit rate : 1 216 Kbps
Width : 656 pixels
Height : 384 pixels
Display aspect ratio : 16/9
Frame rate : 25.000 fps
Resolution : 24 bits
Colorimetry : 4:2:0
Scan type : Progressive
Bits/(Pixel*Frame) : 0.193
Stream size : 629 MiB (90%)
Writing library : XviD 1.2.0.dev47 (UTC 2006-11-01)

Audio
Format : MPEG Audio
Format version : Version 1
Format profile : Layer 3
Codec ID : 55
Codec ID/Hint : MP3
Duration : 1h 12mn
Bit rate mode : Constant
Bit rate : 128 Kbps
Minimum bit rate : 128 Kbps
Channel(s) : 2 channels
Sampling rate : 48.0 KHz
Resolution : 16 bits
Stream size : 66.2 MiB (9%)
Alignment : Aligned on interleaves
Interleave, duration : 40 ms (1.00 video frame)
Interleave, preload duration : 504 ms
Writing library : LAME3.97
Encoding settings : CBR


related torrents

Torrent name

health leech seeds Size
 

comments (0)

Main Menu