Other

WALT DISNEY CLASSIC HOME ON THE [email protected] DVDRIP[ENG]

  • Download 5x Faster
  • Download torrent
  • Direct Download
  • Rate this torrent +  |  -

Torrent info

Name:WALT DISNEY CLASSIC HOME ON THE [email protected] DVDRIP[ENG]

Total Size: 698.77 MB

Magnet: Magnet Link

Seeds: 0

Leechers: 0

Stream: Watch Online @ Movie4u

Last Updated: 0000-00-00 00:00:00 (Update Now)

Torrent added: 2009-09-01 06:53:32





Torrent Files List


HOM0EUM1 (Size: 698.77 MB) (Files: 3)

 HOM0EUM1

  TITLE52.avi

698.72 MB

 Noname.jpg

44.47 KB

 Torrent downloaded from Demonoid.com.txt

0.05 KB
 

Announce URL:

Torrent description

Description

Round up the family and get ready for a whole lotta fun with Disney's hilarious animated comedy Home On The Range. When a greedy outlaw schemes to take possession of the "Patch of Heaven" dairy farm, three determined cows, a karate-kicking stallion named Buck and a colourful corral of critters join forces to save their home. The stakes are sky-high as this unlikely animal alliance risks their hides and match wits with a mysterious band of bad guys. Experience Disney's new moo-vie adventure with stunning animation, lovable characters and original songs.

Format : AVI
Format/Info : Audio Video Interleave
File size : 699 MiB
Duration : 1h 13mn
Overall bit rate : 1 336 Kbps

Video
Format : MPEG-4 Visual
Format profile : [email protected]
Format settings, BVOP : No
Format settings, QPel : No
Format settings, GMC : No warppoints
Format settings, Matrix : Default
Codec ID : XVID
Codec ID/Hint : XviD
Duration : 1h 13mn
Bit rate : 1 196 Kbps
Width : 640 pixels
Height : 360 pixels
Display aspect ratio : 16/9
Frame rate : 25.000 fps
Resolution : 24 bits
Colorimetry : 4:2:0
Scan type : Progressive
Bits/(Pixel*Frame) : 0.208
Stream size : 625 MiB (90%)
Writing library : Magic0432

Audio
Format : MPEG Audio
Format version : Version 1
Format profile : Layer 3
Codec ID : 55
Codec ID/Hint : MP3
Duration : 1h 13mn
Bit rate mode : Constant
Bit rate : 128 Kbps
Channel(s) : 2 channels
Sampling rate : 44.1 KHz
Resolution : 16 bits
Stream size : 66.9 MiB (10%)
Alignment : Aligned on interleaves
Interleave, duration : 26 ms (0.65 video frame)
Writing library : LAME3.97

related torrents

Torrent name

health leech seeds Size

Disney Home On The Range

0 1 728.98 MB 0
 

comments (0)

Main Menu