Other

THE ADVENTURES OF ICHABOD AND MR TOAD (DISNEY CLASSIC GOLD COLLECTION) (1949)@KIDZCORNER RIP

  • Download 5x Faster
  • Download torrent
  • Direct Download
  • Rate this torrent +  |  -

Torrent info

Name:THE ADVENTURES OF ICHABOD AND MR TOAD (DISNEY CLASSIC GOLD COLLECTION) (1949)@KIDZCORNER RIP

Total Size: 625.89 MB

Magnet: Magnet Link

Seeds: 1

Leechers: 1

Stream: Watch Full Movie @ Movie4u

Last Updated: 2015-09-09 21:39:20 (Update Now)

Torrent added: 2009-09-01 06:49:30



VPN For Torrents

Torrent Files List


ICHABOD_AND_MR_TOAD (Size: 625.89 MB) (Files: 4)

 ICHABOD_AND_MR_TOAD

  TITLE01.avi

625.80 MB

 DISC.jpg

50.85 KB

 front.jpg

34.80 KB

 Torrent downloaded from Demonoid.com.txt

0.05 KB
 

tracker

leech seeds
 

Torrent description

In the tradition of grand animated classics, Disney's 11th animated masterpiece, The Adventures Of Ichabod And Mr. Toad, presents two unforgettable children's classics. Through award winning Disney animation wizardry, The Wind In The Willows and The Legend Of Sleepy Hollow come together in one fabulous adventure - in its original theatrical format.

Hang on for the wild motorcar ride of J. Thaddeus Toad as he drives his friends Mole, Rat and Angus McBadger into a worried frenzy! Then meet the spindly Ichabod Crane, who dreams of sweeping beautiful Katrina Van Tassel off her feet, despite opposition from town bully Brom Bones, who also has his eye on Katrina. The comic rivalry introduces Ichabod to the legend of the Headless Horseman, resulting in a heart-thumping climax!

Wonderfully narrated by Basil Rathbone and Bing Crosby, The Adventures Of Ichabod And Mr. Toad brims with high-spirited adventure, brilliant animation and captivating music you'll want to share with your family again and again.

General
Complete name : C:\Users\joker\Documents\THE ADVENTURES OF ICHABOD AND MR. TOAD (DISNEY CLASSIC GOLD COLLECTION) (1949)@KIDZCORNER RIP\ICHABOD_AND_MR_TOAD\TITLE01.avi
Format : AVI
Format/Info : Audio Video Interleave
File size : 626 MiB
Duration : 1h 5mn
Overall bit rate : 1 340 Kbps

Video
Format : MPEG-4 Visual
Format profile : [email protected]
Format settings, BVOP : No
Format settings, QPel : No
Format settings, GMC : No warppoints
Format settings, Matrix : Default
Codec ID : XVID
Codec ID/Hint : XviD
Duration : 1h 5mn
Bit rate : 1 199 Kbps
Width : 640 pixels
Height : 480 pixels
Display aspect ratio : 4/3
Frame rate : 25.000 fps
Resolution : 24 bits
Colorimetry : 4:2:0
Scan type : Progressive
Bits/(Pixel*Frame) : 0.156
Stream size : 560 MiB (90%)
Writing library : Magic0432

Audio
Format : MPEG Audio
Format version : Version 1
Format profile : Layer 3
Codec ID : 55
Codec ID/Hint : MP3
Duration : 1h 5mn
Bit rate mode : Constant
Bit rate : 128 Kbps
Channel(s) : 2 channels
Sampling rate : 44.1 KHz
Resolution : 16 bits
Stream size : 59.8 MiB (10%)
Alignment : Aligned on interleaves
Interleave, duration : 26 ms (0.65 video frame)
Writing library : LAME3.97

related torrents

Torrent name

health leech seeds Size
 


comments (0)

Main Menu

 

script data-cfasync="false" src="//d2ghscazvn398x.cloudfront.net/?cshgd=690275">