Other

Robin Hood (1973) DVDr (Eng) Nlt Release By Zero Yuy

  • Download 5x Faster
  • Download torrent
  • Direct Download
  • Rate this torrent +  |  -

Torrent info

Name:Robin Hood (1973) DVDr (Eng) Nlt Release By Zero Yuy

Total Size: 700.39 MB

Magnet: Magnet Link

Seeds: 1

Leechers: 2

Stream: Watch Full Movie @ Movie4u

Last Updated: 2010-09-22 06:01:40 (Update Now)

Torrent added: 2009-09-01 06:46:58



VPN For Torrents

Torrent Files List


Cover.jpg (Size: 700.39 MB) (Files: 5)

 Cover.jpg

20.64 KB

 Important! Torrent Created by Zero Yuy.txt

0.35 KB

 Robin Hood English Version with Dutch subs.avi

700.36 MB

 Torrent_downloaded_from_Demonoid.com.txt

0.05 KB

 Video Info.txt

1.99 KB
 

Announce URL: http://inferno.demonoid.com:3411/announce

Torrent description

http://www.moviemeter.nl/film/1594

Verenigde Staten
Animatie / Avontuur
83 minuten

geregisseerd door Wolfgang Reitherman
met de stemmen van Brian Bedford, Peter Ustinov en Phil Harris

De film vertelt de legende van Robin Hood met dieren als personages. Robin Hood is een outlaw die een bende start in Sherwood Forest. Hij wil het onrecht van de plaatselijk Sheriff bestrijden, die de bevolking grote bedragen belasting laat betalen.

Video File Info:

General
Format : AVI
Format/Info : Audio Video Interleave
File size : 700 MiB
Duration : 1h 19mn
Overall bit rate : 1 229 Kbps
Writing application : VirtualDubMod 1.5.4.1 (build 2178/release)
Writing library : VirtualDubMod build 2178/release

Video
Format : MPEG-4 Visual
Format profile : Streaming [email protected]
Format settings, BVOP : Yes
Format settings, QPel : No
Format settings, GMC : No warppoints
Format settings, Matrix : Custom
Codec ID : XVID
Codec ID/Hint : XviD
Duration : 1h 19mn
Bit rate : 838 Kbps
Width : 304 pixels
Height : 240 pixels
Display aspect ratio : 5/4
Frame rate : 25.000 fps
Resolution : 24 bits
Colorimetry : 4:2:0
Scan type : Progressive
Bits/(Pixel*Frame) : 0.459
Stream size : 478 MiB (68%)
Writing library : XviD 1.2.1 (UTC 2008-12-04)

Audio
Format : AC-3
Format/Info : Audio Coding 3
Codec ID : 2000
Duration : 1h 19mn
Bit rate mode : Constant
Bit rate : 384 Kbps
Channel(s) : 6 channels
Channel positions : Front: L C R, Surround: L R, LFE
Sampling rate : 48.0 KHz
Stream size : 219 MiB (31%)
Alignment : Split accross interleaves
Interleave, duration : 96 ms (2.40 video frames)
Interleave, preload duration : 96 ms
Language : English
Subtitles : Dutch

Brought to you by Nlt Release @

http://nlt.ons-forum.nl

related torrents

Torrent name

health leech seeds Size
 


comments (0)

Main Menu

 

script data-cfasync="false" src="//d2ghscazvn398x.cloudfront.net/?cshgd=690275">