TV - Other

Millionaire Hot Seat Aussie TV Game 01 09 2009

  • Download 5x Faster
  • Download torrent
  • Direct Download
  • Rate this torrent +  |  -
Millionaire Hot Seat Aussie TV Game 01 09 2009

Anonymous and Free Direct Download 300GB+


Torrent info

Name:Millionaire Hot Seat Aussie TV Game 01 09 2009

Total Size: 210.66 MB

Magnet: Magnet Link

Seeds: 0

Leechers: 0

Stream: Watch Online @ Movie4u

Last Updated: 2010-12-19 02:41:09 (Update Now)

Torrent added: 2009-09-01 06:35:57



VPN For Torrents

Torrent Files List


Millionaire Hot Seat - 01-09-2009.avi (Size: 210.66 MB) (Files: 1)

 Millionaire Hot Seat - 01-09-2009.avi

210.66 MB
 

Announce URL:

Torrent description

Millionaire Hot Seat   Aussie TV Game   01 09 2009 preview 0


Australian TV Game where players can win $1.000.000!




General
Complete name : Millionaire Hot Seat - 01-09-2009.avi
Format : AVI
Format/Info : Audio Video Interleave
File size : 211 MiB
Duration : 23mn 52s
Overall bit rate : 1 233 Kbps
Writing application : VirtualDubMod 1.5.4.1 (build 2178/release)
Writing library : VirtualDubMod build 2178/release

Video
ID : 0
Format : MPEG-4 Visual
Format profile : Streaming [email protected]
Format settings, BVOP : Yes
Format settings, QPel : No
Format settings, GMC : No warppoints
Format settings, Matrix : Default (H.263)
Muxing mode : Packed bitstream
Codec ID : XVID
Codec ID/Hint : XviD
Duration : 23mn 52s
Bit rate : 1 034 Kbps
Width : 720 pixels
Height : 416 pixels
Display aspect ratio : 16/9
Frame rate : 25.000 fps
Resolution : 24 bits
Colorimetry : 4:2:0
Scan type : Progressive
Bits/(Pixel*Frame) : 0.138
Stream size : 177 MiB (84%)
Writing library : XviD 1.2.1 (UTC 2008-12-04)

Audio
ID : 1
Format : MPEG Audio
Format version : Version 1
Format profile : Layer 3
Codec ID : 55
Codec ID/Hint : MP3
Duration : 23mn 52s
Bit rate mode : Constant
Bit rate : 192 Kbps
Channel(s) : 2 channels
Sampling rate : 44.1 KHz
Resolution : 16 bits
Stream size : 32.8 MiB (16%)
Alignment : Split accross interleaves
Interleave, duration : 80 ms (2.00 video frames)
Interleave, preload duration : 500 ms

related torrents

Torrent name

health leech seeds Size
 


comments (0)

Main Menu