Other

DUCKTALES THE MOVIE treasure of the lost lamp[DVDRIP][ENG] KIDZCORNER&J T R

  • Download 5x Faster
  • Download torrent
  • Direct Download
  • Rate this torrent +  |  -
DUCKTALES THE MOVIE treasure of the lost lamp[DVDRIP][ENG] KIDZCORNER&J T R

Free and Direct Download with Usenet.nl 300GB+ free


Torrent info

Name:DUCKTALES THE MOVIE treasure of the lost lamp[DVDRIP][ENG] KIDZCORNER&J T R

Total Size: 678.93 MB

Magnet: Magnet Link

Seeds: 1

Leechers: 1

Stream: Watch Online @ Movie4u

Last Updated: 2016-12-05 14:47:21 (Update Now)

Torrent added: 2009-09-01 06:35:13





Torrent Files List


DUCKTALES_THE_MOVIE (Size: 678.93 MB) (Files: 7)

 DUCKTALES_THE_MOVIE

  TITLE01.avi

678.18 MB

 555437_DV_L_B.JPG

31.59 KB

 555437_DV_L_F.JPG

33.71 KB

 cover.jpg

406.18 KB

 disc.jpg

297.66 KB

 Torrent downloaded from Demonoid.com-3.txt

0.05 KB

 Tracked by moviesb4time.biz.txt

1.35 KB
 

tracker

leech seeds
 

Torrent description

Hop on a camel, grab a map, and get ready for an action-packed, fun-filled adventure starring your favourite feathered friends, Scrooge McDuck, Huey, Dewey, Louie, and Webbigail Vanderquack.
Join the DUCK TALES team for a trek across the Egyptian desert on a fearless quest for the legendary Treasure of Collie Baba. There's excitement at every turn as they close in on the fabled fortune with the evil sorcerer, Merlock, right behind them. But when the daring ducks find the riches, they never suspect that there's a magic lamp among the gems...with a wacky, wish-granting genie inside.
Packed with laughter, adventure and a cast of loveable characters, DUCK TALES THE MOVIE: TREASURE OF THE LOST LAMP will captivate the entire family.


General
Complete name : C:\Users\joker\Documents\DUCKTALES THE MOVIE-treasure of the last lamp[DVDRIP][ENG]-KIDZCORNER&J.T.R\DUCKTALES_THE_MOVIE\TITLE01.avi
Format : AVI
Format/Info : Audio Video Interleave
File size : 678 MiB
Duration : 1h 10mn
Overall bit rate : 1 339 Kbps

Video
Format : MPEG-4 Visual
Format profile : [email protected]
Format settings, BVOP : No
Format settings, QPel : No
Format settings, GMC : No warppoints
Format settings, Matrix : Default
Codec ID : XVID
Codec ID/Hint : XviD
Duration : 1h 10mn
Bit rate : 1 199 Kbps
Width : 640 pixels
Height : 360 pixels
Display aspect ratio : 16/9
Frame rate : 25.000 fps
Resolution : 24 bits
Colorimetry : 4:2:0
Scan type : Progressive
Bits/(Pixel*Frame) : 0.208
Stream size : 607 MiB (90%)
Writing library : Magic0432

Audio
Format : MPEG Audio
Format version : Version 1
Format profile : Layer 3
Codec ID : 55
Codec ID/Hint : MP3
Duration : 1h 10mn
Bit rate mode : Constant
Bit rate : 128 Kbps
Channel(s) : 2 channels
Sampling rate : 44.1 KHz
Resolution : 16 bits
Stream size : 64.8 MiB (10%)
Alignment : Aligned on interleaves
Interleave, duration : 26 ms (0.65 video frame)
Writing library : LAME3.97

related torrents

Torrent name

health leech seeds Size
 

comments (0)

Main Menu