Other

DuckTales le Film Trésor de la Lampe Perdue H 264 PAR KIDZCORNER

  • Download 5x Faster
  • Download torrent
  • Direct Download
  • Rate this torrent +  |  -

Torrent info

Name:DuckTales le Film Trésor de la Lampe Perdue H 264 PAR KIDZCORNER

Total Size: 700.12 MB

Magnet: Magnet Link

Seeds: 0

Leechers: 0

Stream: Watch Online @ Movie4u

Last Updated: 2015-07-17 06:28:55 (Update Now)

Torrent added: 2009-09-01 06:35:08



VPN For Torrents

Torrent Files List


ducktales the movie treasure of the lost lamp.mp4 (Size: 700.12 MB) (Files: 4)

 ducktales the movie treasure of the lost lamp.mp4

699.52 MB

 Ducktales_The_Movie_Treasure_Of_The_Lost_Lamp_French-[cdcovers_cc]-front.jpg

607.48 KB

 kidzcorner info.txt

0.30 KB

 Torrent downloaded from Demonoid.com.txt

0.05 KB
 

tracker

leech seeds
 

Torrent description

english
"Uncle Scrooge and the colourful cast of characters from Disney's popular DuckTales series go hunting treasure in this action-packed animated adventure. With his nephews Huey, Dewey, and Louie, and his niece Webbigail Vanderquack at his side, everyone's favorite rich uncle, Scrooge McDuck, treks from his mansion home in Duckburg in search of the long-lost loot of the legendary thief Collie Baba. But finding the treasure isn't quite what it's "quacked" up to be. Their journeys lead to comical chaos, magical mayhem and a lesson about what is far more valuable than money, gold and jewels."

french
L'oncle Gripsou et les heureux lurons des desseins animés de la serie 'Donald Duck" Partent pour une chasse aux trésors dans ce dessein animé plein d'action. Avec ses neveux,Huey, Dewey et Louie , avec sa niece Webbgail Vanderquack à ses cotés et l'oncle favorite richissime de tout le monde, part de sa mansion à Duckburg à la recherche du trésor perdu du voleur légendaire Collie Baba. Mais de trouver le trésor n'est pas aussi simple! Leur voyage est un mélange de chaos, mayhem mysterieux et une léçon sur ce qui est de loin plus precieux que de simple argent, or et bijoux.

Format : MPEG-4
Format profile : Base Media / Version 2
Codec ID : mp42
File size : 700 MiB
Duration : 1h 10mn
Overall bit rate : 1 381 Kbps
Encoded date : UTC 2009-08-15 11:36:08
Tagged date : UTC 2009-08-15 15:00:13
Writing application : HandBrake 0.9.3 2008112300

Video
ID : 1
Format : AVC
Format/Info : Advanced Video Codec
Format profile : [email protected]
Format settings, CABAC : Yes
Format settings, ReFrames : 3 frames
Codec ID : avc1
Codec ID/Info : Advanced Video Coding
Duration : 1h 10mn
Bit rate mode : Variable
Bit rate : 1 218 Kbps
Width : 676 pixels
Height : 576 pixels
Display aspect ratio : 1.669
Frame rate mode : Variable
Frame rate : 25.000 fps
Minimum frame rate : 12.500 fps
Maximum frame rate : 25.000 fps
Resolution : 24 bits
Colorimetry : 4:2:0
Scan type : Progressive
Bits/(Pixel*Frame) : 0.125
Stream size : 617 MiB (88%)
Writing library : x264 core 65
Encoding settings : cabac=1 / ref=2 / deblock=1:-2:-1 / analyse=0x1:0x131 / me=umh / subme=9 / psy_rd=1.0:0.0 / mixed_ref=1 / me_range=16 / chroma_me=1 / trellis=0 / 8x8dct=0 / cqm=0 / deadzone=21,11 / chroma_qp_offset=-2 / threads=3 / nr=0 / decimate=1 / mbaff=0 / bframes=3 / b_pyramid=1 / b_adapt=1 / b_bias=0 / direct=3 / wpredb=1 / keyint=250 / keyint_min=25 / scenecut=40(pre) / rc=2pass / bitrate=1218 / ratetol=1.0 / qcomp=0.60 / qpmin=10 / qpmax=51 / qpstep=4 / cplxblur=20.0 / qblur=0.5 / ip_ratio=1.40 / pb_ratio=1.30 / aq=1:1.00
Encoded date : UTC 2009-08-15 11:36:08
Tagged date : UTC 2009-08-15 15:00:13

Audio
ID : 2
Format : AAC
Format/Info : Advanced Audio Codec
Format version : Version 4
Format profile : LC
Format settings, SBR : No
Codec ID : 40
Duration : 1h 10mn
Bit rate mode : Variable
Bit rate : 160 Kbps
Maximum bit rate : 224 Kbps
Channel(s) : 2 channels
Channel positions : L R
Sampling rate : 48.0 KHz
Resolution : 16 bits
Stream size : 80.8 MiB (12%)
Language : French
Encoded date : UTC 2009-08-15 11:36:08
Tagged date : UTC 2009-08-15 15:00:10

related torrents

Torrent name

health leech seeds Size
 


comments (0)

Main Menu