Other

DISNEYS TREASURE ISLAND[1950] H 264 BY STIG

  • Download 5x Faster
  • Download torrent
  • Direct Download
  • Rate this torrent +  |  -
DISNEYS TREASURE ISLAND[1950] H 264 BY STIG

Free and Direct Download with Usenet 300GB+ free


Torrent info

Name:DISNEYS TREASURE ISLAND[1950] H 264 BY STIG

Total Size: 802.77 MB

Magnet: Magnet Link

Seeds: 1

Leechers: 1

Stream: Watch Online @ Movie4u

Last Updated: 2016-04-30 12:56:10 (Update Now)

Torrent added: 2009-09-01 06:34:29




Torrent Files List


ti.mp4 (Size: 802.77 MB) (Files: 5)

 ti.mp4

799.46 MB

 treasure_island_1950_dvd-front.jpg

1.82 MB

 treasure_island_1950_r1_retail_dvd-cd.jpg

813.73 KB

 treasure_island_1950_dvd-inlay.jpg

718.56 KB

 Torrent downloaded from Demonoid.com.txt

0.05 KB
 

tracker

leech seeds
 

Torrent description

In this swashbuckling, high-seas adventure, Walt Disney has vividly brought to life Robert Louis Stevenson's thrilling tale of buccaneers and buried gold - presented for the first time in it's original, uncut, theatrical version! Authentic locales and musket-roaring action set the stage for the stouthearted heroics of young Jim Hawkins (Bobby Driscoll) and the skullduggery of that wily, one-legged pirate, Long John Silver.

Format : MPEG-4
Format profile : Base Media / Version 2
Codec ID : mp42
File size : 799 MiB
Duration : 1h 31mn
Overall bit rate : 1 216 Kbps
Encoded date : UTC 2009-07-29 17:38:20
Tagged date : UTC 2009-07-29 21:39:22
Writing application : HandBrake 0.9.3 2008112300

Video
ID : 1
Format : AVC
Format/Info : Advanced Video Codec
Format profile : [email protected]
Format settings, CABAC : Yes
Format settings, ReFrames : 3 frames
Codec ID : avc1
Codec ID/Info : Advanced Video Coding
Duration : 1h 31mn
Bit rate mode : Variable
Bit rate : 1 052 Kbps
Width : 720 pixels
Height : 576 pixels
Display aspect ratio : 4/3
Frame rate mode : Variable
Frame rate : 25.000 fps
Minimum frame rate : 12.500 fps
Maximum frame rate : 25.000 fps
Standard : PAL
Resolution : 24 bits
Colorimetry : 4:2:0
Scan type : Progressive
Bits/(Pixel*Frame) : 0.101
Stream size : 692 MiB (87%)
Writing library : x264 core 65


Audio
ID : 2
Format : AAC
Format/Info : Advanced Audio Codec
Format version : Version 4
Format profile : LC
Format settings, SBR : No
Codec ID : 40
Duration : 1h 31mn
Bit rate mode : Variable
Bit rate : 160 Kbps
Maximum bit rate : 201 Kbps
Channel(s) : 2 channels
Channel positions : L R
Sampling rate : 48.0 KHz
Resolution : 16 bits
Stream size : 105 MiB (13%)
Language : English
Encoded date : UTC 2009-07-29 17:38:20
Tagged date : UTC 2009-07-29 21:39:17

related torrents

Torrent name

health leech seeds Size

Treasure Island 1950

5 0 2.20 GB 0
 

comments (0)

Main Menu