Other

DISNEYS THE WILD IN H 264 BY STIG

  • Download 5x Faster
  • Download torrent
  • Direct Download
  • Rate this torrent +  |  -
DISNEYS THE WILD IN H 264 BY STIG

Free and Direct Download with Usenet.nl 300GB+ free


Torrent info

Name:DISNEYS THE WILD IN H 264 BY STIG

Total Size: 701.17 MB

Magnet: Magnet Link

Seeds: 0

Leechers: 0

Stream: Watch Online @ Movie4u

Last Updated: 2015-09-02 03:26:53 (Update Now)

Torrent added: 2009-09-01 06:34:23





Torrent Files List


the wild.mp4 (Size: 701.17 MB) (Files: 4)

 the wild.mp4

698.46 MB

 the_wild_2006_r1_retail_dvd-front.jpg

2.12 MB

 the_wild_2006_r1_retail_dvd-cd.jpg

605.95 KB

 Torrent downloaded from Demonoid.com-1.txt

0.05 KB
 

tracker

leech seeds
 

Torrent description

Ryan (Greg Cipes) is a lion who wants to go to the wild, where his dad (Samson, voiced by Keifer Sutherland) once lived. When he gets himself shipped to Africa, his zoo friends (and Samson) work together to bring him back. When they get to Africa, however, the animals find themselves in a pile of danger. They have to fight an evil wildebeest called Kazar (William Shatner). But Kazar's safe compared to the other danger on the island- a volcano that's on the edge of eruption. Can the animals find Ryan and get out of Africa before the volcano erupts in so little time?

Format : MPEG-4
Format profile : Base Media / Version 2
Codec ID : mp42
File size : 698 MiB
Duration : 1h 18mn
Overall bit rate : 1 248 Kbps
Encoded date : UTC 2009-08-07 01:35:18
Tagged date : UTC 2009-08-07 05:15:23
Writing application : HandBrake 0.9.3 2008112300

Video
ID : 1
Format : AVC
Format/Info : Advanced Video Codec
Format profile : [email protected]
Format settings, CABAC : Yes
Format settings, ReFrames : 3 frames
Codec ID : avc1
Codec ID/Info : Advanced Video Coding
Duration : 1h 18mn
Bit rate mode : Variable
Bit rate : 1 084 Kbps
Width : 720 pixels
Height : 574 pixels
Display aspect ratio : 16/9
Frame rate mode : Variable
Frame rate : 25.000 fps
Minimum frame rate : 12.500 fps
Maximum frame rate : 38.278 fps
Resolution : 24 bits
Colorimetry : 4:2:0
Scan type : Progressive
Bits/(Pixel*Frame) : 0.105
Stream size : 607 MiB (87%)

Audio
ID : 2
Format : AAC
Format/Info : Advanced Audio Codec
Format version : Version 4
Format profile : LC
Format settings, SBR : No
Codec ID : 40
Duration : 1h 18mn
Bit rate mode : Variable
Bit rate : 160 Kbps
Maximum bit rate : 212 Kbps
Channel(s) : 2 channels
Channel positions : L R
Sampling rate : 48.0 KHz
Resolution : 16 bits
Stream size : 89.5 MiB (13%)
Language : English
Encoded date : UTC 2009-08-07 01:35:19
Tagged date : UTC 2009-08-07 05:15:20

related torrents

Torrent name

health leech seeds Size
 

comments (0)

Main Menu