Other

DISNEYS BAMBI 2[2006] IN H 264 BY STIG

  • Download 5x Faster
  • Download torrent
  • Direct Download
  • Rate this torrent +  |  -
DISNEYS BAMBI 2[2006] IN H 264 BY STIG

Anonymous and free Direct Download 300GB+


Torrent info

Name:DISNEYS BAMBI 2[2006] IN H 264 BY STIG

Total Size: 701.41 MB

Magnet: Magnet Link

Seeds: 0

Leechers: 0

Stream: Watch Online @ Movie4u

Last Updated: 2014-10-22 16:44:30 (Update Now)

Torrent added: 2009-09-01 06:33:56



VPN For Torrents

Torrent Files List


bambi 2.mp4 (Size: 701.41 MB) (Files: 4)

 bambi 2.mp4

699.31 MB

 bambi_ii_dvd-front.jpg

1.81 MB

 bambi_ii-cd.jpg

297.16 KB

 Torrent downloaded from Demonoid.com-2.txt

0.05 KB
 

Announce URL:

Torrent description

One of the silver screen's most cherished characters makes his triumphant return in Disney's spectacular all-new movie, Bambi 2. The eagerly awaited next chapter of Bambi's unforgettable story continues for a whole new generation in a film that's sure to delight your entire family.

Join Bambi as he reunites with his father, The Great Prince, who must now raise the young fawn and teach him the ways of the forest. But, in the adventure of a lifetime, the proud parent discovers that there is much that he can learn from his spirited young son.

Thumper, Flower, Owl and the rest of your favourite characters return - and you'll meet some wonderful new friends - as Bambi's magnificent legacy continues. Illustrated in the breathtaking animation style of the original classic and bursting with enchanting new songs Bambi 2 is truly a wonder to behold.

Format : MPEG-4
Format profile : Base Media / Version 2
Codec ID : mp42
File size : 699 MiB
Duration : 1h 9mn
Overall bit rate : 1 409 Kbps
Encoded date : UTC 2009-07-31 09:19:18
Tagged date : UTC 2009-07-31 13:11:23
Writing application : HandBrake 0.9.3 2008112300

Video
ID : 1
Format : AVC
Format/Info : Advanced Video Codec
Format profile : [email protected]
Format settings, CABAC : Yes
Format settings, ReFrames : 3 frames
Codec ID : avc1
Codec ID/Info : Advanced Video Coding
Duration : 1h 9mn
Bit rate mode : Variable
Bit rate : 1 246 Kbps
Width : 720 pixels
Height : 576 pixels
Display aspect ratio : 16/9
Frame rate mode : Variable
Frame rate : 25.000 fps
Minimum frame rate : 12.500 fps
Maximum frame rate : 25.000 fps
Standard : PAL
Resolution : 24 bits
Colorimetry : 4:2:0
Scan type : Progressive
Bits/(Pixel*Frame) : 0.120
Stream size : 618 MiB (88%)
Writing library : x264 core 65

Audio
ID : 2
Format : AAC
Format/Info : Advanced Audio Codec
Format version : Version 4
Format profile : LC
Format settings, SBR : No
Codec ID : 40
Duration : 1h 9mn
Bit rate mode : Variable
Bit rate : 159 Kbps
Maximum bit rate : 194 Kbps
Channel(s) : 2 channels
Channel positions : L R
Sampling rate : 48.0 KHz
Resolution : 16 bits
Stream size : 79.1 MiB (11%)
Language : English
Encoded date : UTC 2009-07-31 09:19:18
Tagged date : UTC 2009-07-31 13:11:18

related torrents

Torrent name

health leech seeds Size
 


comments (0)

Main Menu