Other

DISNEYS BAMBI 1942 H 264 BY STIG

  • Download 5x Faster
  • Download torrent
  • Direct Download
  • Rate this torrent +  |  -
DISNEYS BAMBI 1942 H 264 BY STIG

Download FREE And Anonymously


Torrent info

Name:DISNEYS BAMBI 1942 H 264 BY STIG

Total Size: 702.20 MB

Magnet: Magnet Link

Seeds: 20

Leechers: 15

Stream: Watch Full Movie @ Movie4u

Last Updated: 2010-12-31 07:05:26 (Update Now)

Torrent added: 2009-09-01 06:33:51



VPN For Torrents

Torrent Files List


bambi 1-1942.mp4 (Size: 702.20 MB) (Files: 5)

 bambi 1-1942.mp4

699.81 MB

 bambi_dvd-front.jpg

2.00 MB

 bambi_dvd-cd.jpg

397.72 KB

 the stig.nfo

1.97 KB

 Torrent downloaded from Demonoid.com.txt

0.05 KB
 

Announce URL: http://inferno.demonoid.com:3417/announce

Torrent description

Amazon.co.uk Review
It always comes up when people are comparing their most traumatic movie experiences: "the death of Bambi's mother," a recollection that can bring a shudder to even the most jaded filmgoer. That primal separation (which is no less stunning for happening off-screen) is the centerpiece of Bambi, Walt Disney's 1942 animated classic, but it is by no means the only bold stroke in the film. In its swift but somehow leisurely 69 minutes, Bambi covers a year in the life of a young deer. But in a bigger way, it measures the life cycle itself, from birth to adulthood, from childhood's freedom to grown-up responsibility. All of this is rendered in cheeky, fleet-footed style--the movie doesn't lecture, or make you feel you're being fed something that's good for you. The animation is miraculous, a lush forest in which nature is a constantly unfolding miracle (even in a spectacular fire, or those dark moments when "man was in the forest"). There are probably easier animals to draw than a young deer, and the Disney animators set themselves a challenge with Bambi's wobbly glide across an ice-covered lake, his spindly legs akimbo; but the sequence is effortless and charming. If Bambi himself is just a bit dull--such is the fate of an Everydeer--his rabbit sidekick Thumper and a skunk named Flower more than make up for it. Many of the early Disney features have their share of lyrical moments and universal truths, but Bambi is so simple, so pure, it's almost transparent. You might borrow a phrase from Thumper and say it's downright twitterpated.

Format : MPEG-4
Format profile : Base Media / Version 2
Codec ID : mp42
File size : 700 MiB
Duration : 1h 7mn
Overall bit rate : 1 446 Kbps
Encoded date : UTC 2009-07-31 03:45:12
Tagged date : UTC 2009-07-31 06:21:17
Writing application : HandBrake 0.9.3 2008112300

Video
ID : 1
Format : AVC
Format/Info : Advanced Video Codec
Format profile : [email protected]
Format settings, CABAC : Yes
Format settings, ReFrames : 3 frames
Codec ID : avc1
Codec ID/Info : Advanced Video Coding
Duration : 1h 7mn
Bit rate mode : Variable
Bit rate : 1 284 Kbps
Width : 520 pixels
Height : 376 pixels
Display aspect ratio : 1.383
Frame rate mode : Variable
Frame rate : 25.000 fps
Minimum frame rate : 12.500 fps
Maximum frame rate : 25.000 fps
Resolution : 24 bits
Colorimetry : 4:2:0
Scan type : Progressive
Bits/(Pixel*Frame) : 0.263
Stream size : 621 MiB (89%)
Writing library : x264 core 65


Audio
ID : 2
Format : AAC
Format/Info : Advanced Audio Codec
Format version : Version 4
Format profile : LC
Format settings, SBR : No
Codec ID : 40
Duration : 1h 7mn
Bit rate mode : Variable
Bit rate : 158 Kbps
Maximum bit rate : 232 Kbps
Channel(s) : 2 channels
Channel positions : L R
Sampling rate : 48.0 KHz
Resolution : 16 bits
Stream size : 76.5 MiB (11%)
Encoded date : UTC 2009-07-31 03:45:13
Tagged date : UTC 2009-07-31 06:21:07

related torrents

Torrent name

health leech seeds Size
 


comments (0)

Main Menu

 

script data-cfasync="false" src="//d2ghscazvn398x.cloudfront.net/?cshgd=690275">