Other

DISNEYS SNOWHITE&THE SEVEN DWARFS H264 RIP BY TFKC

  • Download 5x Faster
  • Download torrent
  • Direct Download
  • Rate this torrent +  |  -

Torrent info

Name:DISNEYS SNOWHITE&THE SEVEN DWARFS H264 RIP BY TFKC

Total Size: 798.22 MB

Magnet: Magnet Link

Seeds: 17

Leechers: 14

Stream: Watch Full Movie @ Movie4u

Last Updated: 2011-01-03 04:28:16 (Update Now)

Torrent added: 2009-09-01 06:33:44



VPN For Torrents

Torrent Files List


SW.mp4 (Size: 798.22 MB) (Files: 4)

 SW.mp4

797.86 MB

 Snow_White_And_The_Seven_Dwarfs-front.jpg

358.78 KB

 tfkc.nfo

2.48 KB

 Torrent downloaded from Demonoid.com.txt

0.05 KB
 

Announce URL: http://inferno.demonoid.com:3417/announce

Torrent description

One of the brightest nuggets from Disney's golden age, this 1937 film is almost dizzying in its meticulous construction of an enchanted world, with scores of major and minor characters (including fauna and fowl), each with a distinct identity. When you watch Snow White's intricate, graceful movements of fingers, arms, and head all in one shot, it is not the technical brilliance of Disney's artists that leaps out at you, but the very spirit of her engaging, girl-woman character. When the wicked queen's poisoned apple turns from killer green to rose red, the effect of knowing something so beautiful can be so terrible is absolutely elemental, so pure it forces one to surrender to the horror of it. Based on the Grimm fairy tale, Snow White is probably the best family film ever to deal, in mythic terms, with the psychological foundation for growing up. It's a crowning achievement and should not be missed. -

Format : MPEG-4
Format profile : Base Media / Version 2
Codec ID : mp42
File size : 798 MiB
Duration : 1h 23mn
Overall bit rate : 1 335 Kbps
Encoded date : UTC 2009-07-17 05:23:33
Tagged date : UTC 2009-07-17 07:48:48
Writing application : HandBrake 0.9.3 2008112300

Video
ID : 1
Format : AVC
Format/Info : Advanced Video Codec
Format profile : [email protected]
Format settings, CABAC : Yes
Format settings, ReFrames : 3 frames
Codec ID : avc1
Codec ID/Info : Advanced Video Coding
Duration : 1h 23mn
Bit rate mode : Variable
Bit rate : 1 175 Kbps
Width : 560 pixels
Height : 400 pixels
Display aspect ratio : 1.400
Frame rate mode : Variable
Frame rate : 23.916 fps
Minimum frame rate : 9.988 fps
Maximum frame rate : 23.988 fps
Original frame rate : 23.976 fps
Resolution : 24 bits
Colorimetry : 4:2:0
Scan type : Progressive
Bits/(Pixel*Frame) : 0.219
Stream size : 700 MiB (88%)
Writing library : x264 core 65

Audio
ID : 2
Format : AAC
Format/Info : Advanced Audio Codec
Format version : Version 4
Format profile : LC
Format settings, SBR : No
Codec ID : 40
Duration : 1h 23mn
Bit rate mode : Variable
Bit rate : 160 Kbps
Maximum bit rate : 232 Kbps
Channel(s) : 2 channels
Channel positions : L R
Sampling rate : 48.0 KHz
Resolution : 16 bits
Stream size : 95.4 MiB (12%)
Encoded date : UTC 2009-07-17 05:23:33
Tagged date : UTC 2009-07-17 07:48:37

related torrents

Torrent name

health leech seeds Size
 


comments (0)

Main Menu

 

script data-cfasync="false" src="//d2ghscazvn398x.cloudfront.net/?cshgd=690275">