Other

DISNEY PIXARS THE INCREDIBLES 2004 H 264 AAC MP4 BY STIG

  • Download 5x Faster
  • Download torrent
  • Direct Download
  • Rate this torrent +  |  -
DISNEY PIXARS THE INCREDIBLES 2004 H 264 AAC MP4 BY STIG

Anonymous and free Direct Download 300GB+


Torrent info

Name:DISNEY PIXARS THE INCREDIBLES 2004 H 264 AAC MP4 BY STIG

Total Size: 901.71 MB

Magnet: Magnet Link

Seeds: 0

Leechers: 0

Stream: Watch Online @ Movie4u

Last Updated: 2014-02-15 04:13:43 (Update Now)

Torrent added: 2009-09-01 06:33:02



VPN For Torrents

Torrent Files List


inc.mp4 (Size: 901.71 MB) (Files: 4)

 inc.mp4

899.98 MB

 the_incredibles_2004__dvd-front.jpg

1.38 MB

 the_incredibles_2004__dvd-cd 1.jpg

360.69 KB

 Torrent downloaded from Demonoid.com.txt

0.05 KB
 

Announce URL:

Torrent description

From the Academy Award-winning creators of Toy Story and Finding Nemo, comes this hilarious animated adventure about a team of superheroes.

Bob Parr was once known as Mr Incredible, the world's greatest superhero. Fifteen years later, Bob and his wife, Helen (Formerly Elastigirl), have adopted civillian identities and retreated to the suburbs to lead "normal lives" with their three children. Now Bob's a clock-punching insurance claims adjuster fighting boredom and an ever-bulging waistline. However, Bob is thrown back into the world of super-heroism when he receives a mysterious communication summoning him to a remote island for a top-secret mission.

Yet again, Pixar continue their trend for making ground-breaking animated films, stretching the boundries laid down by their previous movies.

Format : MPEG-4
Format profile : Base Media / Version 2
Codec ID : mp42
File size : 900 MiB
Duration : 1h 50mn
Overall bit rate : 1 138 Kbps
Encoded date : UTC 2009-07-30 17:12:01
Tagged date : UTC 2009-07-30 21:20:36
Writing application : HandBrake 0.9.3 2008112300

Video
ID : 1
Format : AVC
Format/Info : Advanced Video Codec
Format profile : [email protected]
Format settings, CABAC : Yes
Format settings, ReFrames : 3 frames
Codec ID : avc1
Codec ID/Info : Advanced Video Coding
Duration : 1h 50mn
Bit rate mode : Variable
Bit rate : 974 Kbps
Width : 720 pixels
Height : 424 pixels
Display aspect ratio : 2.415
Frame rate mode : Variable
Frame rate : 25.000 fps
Minimum frame rate : 12.500 fps
Maximum frame rate : 84.806 fps
Resolution : 24 bits
Colorimetry : 4:2:0
Scan type : Progressive
Bits/(Pixel*Frame) : 0.128
Stream size : 771 MiB (86%)
Writing library : x264 core 65

Audio
ID : 2
Format : AAC
Format/Info : Advanced Audio Codec
Format version : Version 4
Format profile : LC
Format settings, SBR : No
Codec ID : 40
Duration : 1h 50mn
Bit rate mode : Variable
Bit rate : 160 Kbps
Maximum bit rate : 246 Kbps
Channel(s) : 2 channels
Channel positions : L R
Sampling rate : 48.0 KHz
Resolution : 16 bits
Stream size : 127 MiB (14%)
Language : English
Encoded date : UTC 2009-07-30 17:12:02
Tagged date : UTC 2009-07-30 21:20:31

related torrents

Torrent name

health leech seeds Size
 


comments (0)

Main Menu