Other

DISNEY PIXARS RATATOUILLE IN H 264 BY KIDZCORNER

  • Download 5x Faster
  • Download torrent
  • Direct Download
  • Rate this torrent +  |  -
DISNEY PIXARS RATATOUILLE IN H 264 BY KIDZCORNER

Anonymous and Direct Download 300GB+ free


Torrent info

Name:DISNEY PIXARS RATATOUILLE IN H 264 BY KIDZCORNER

Total Size: 0.98 GB

Magnet: Magnet Link

Seeds: 8

Leechers: 3

Stream: Watch Online @ Movie4u

Last Updated: 2011-04-18 13:20:27 (Update Now)

Torrent added: 2009-09-01 06:31:59




Torrent Files List


ratat.mp4 (Size: 0.98 GB) (Files: 5)

 ratat.mp4

999.32 MB

 ratatouille_2007_r1_retail_dvd-front.jpg

1.93 MB

 ratatouille_2007_r1_retail_dvd-cd.jpg

488.27 KB

 kidzcorner info.txt

0.30 KB

 Torrent downloaded from Demonoid.com.txt

0.05 KB
 

Announce URL: http://inferno.demonoid.com:3418/announce

Torrent description

in Pixar's new animated-adventure, Ratatouille, a rat named Remy dreams of becoming a great French chef despite his family's wishes and the obvious problem of being a rat in a decidedly rodent-phobic profession. When fate places Remy in the sewers of Paris, he finds himself ideally situated beneath a restaurant made famous by his culinary hero, Auguste Gusteau. Despite the apparent dangers of being an unlikely - and certainly unwanted - visitor in the kitchen of a fine French restaurant, Remy's passion for cooking soon sets into motion a hilarious and exciting rat race that turns the culinary world of Paris upside down.

Remy finds himself torn between his calling and passion in life or returning forever to his previous existence as a rat. He learns the truth about friendship, family and having no choice but to be who he really is, a rat who wants to be a chef.

isp downtime tonight 6pm till 8pm


Format : MPEG-4
Format profile : Base Media / Version 2
Codec ID : mp42
File size : 999 MiB
Duration : 1h 46mn
Overall bit rate : 1 318 Kbps
Encoded date : UTC 2009-08-11 16:04:48
Tagged date : UTC 2009-08-11 19:51:41
Writing application : HandBrake 0.9.3 2008112300

Video
ID : 1
Format : AVC
Format/Info : Advanced Video Codec
Format profile : [email protected]
Format settings, CABAC : Yes
Format settings, ReFrames : 3 frames
Codec ID : avc1
Codec ID/Info : Advanced Video Coding
Duration : 1h 46mn
Bit rate mode : Variable
Bit rate : 1 154 Kbps
Width : 720 pixels
Height : 428 pixels
Display aspect ratio : 2.35
Frame rate mode : Variable
Frame rate : 25.000 fps
Minimum frame rate : 12.500 fps
Maximum frame rate : 57.143 fps
Resolution : 24 bits
Colorimetry : 4:2:0
Scan type : Progressive
Bits/(Pixel*Frame) : 0.150
Stream size : 875 MiB (88%)
Writing library : x264 core 65

Audio
ID : 2
Format : AAC
Format/Info : Advanced Audio Codec
Format version : Version 4
Format profile : LC
Format settings, SBR : No
Codec ID : 40
Duration : 1h 46mn
Bit rate mode : Variable
Bit rate : 160 Kbps
Maximum bit rate : 260 Kbps
Channel(s) : 2 channels
Channel positions : L R
Sampling rate : 48.0 KHz
Resolution : 16 bits
Stream size : 121 MiB (12%)
Language : English
Encoded date : UTC 2009-08-11 16:04:48
Tagged date : UTC 2009-08-11 19:51:38

related torrents

Torrent name

health leech seeds Size
 


comments (0)

Main Menu