Other

Disney Thumbelina (1994) avi divx xvid GuySmiley [

  • Download 5x Faster
  • Download torrent
  • Direct Download
  • Rate this torrent +  |  -
Disney Thumbelina (1994) avi divx xvid GuySmiley [

Free and Direct Download with Usenet.nl 300GB+ free


Torrent info

Name:Disney Thumbelina (1994) avi divx xvid GuySmiley [

Total Size: 702.59 MB

Magnet: Magnet Link

Seeds: 0

Leechers: 0

Stream: Watch Online @ Movie4u

Last Updated: 0000-00-00 00:00:00 (Update Now)

Torrent added: 2009-09-01 06:29:32





Torrent Files List


disney - Thumbelina (1994) avi divx xvid - GuySmiley.nfo (Size: 702.59 MB) (Files: 52)

 disney - Thumbelina (1994) avi divx xvid - GuySmiley.nfo

2.25 KB

 disney - Thumbelina (1994) avi divx xvid - GuySmiley.r00

14.31 MB

 disney - Thumbelina (1994) avi divx xvid - GuySmiley.r01

14.31 MB

 disney - Thumbelina (1994) avi divx xvid - GuySmiley.r02

14.31 MB

 disney - Thumbelina (1994) avi divx xvid - GuySmiley.r03

14.31 MB

 disney - Thumbelina (1994) avi divx xvid - GuySmiley.r04

14.31 MB

 disney - Thumbelina (1994) avi divx xvid - GuySmiley.r05

14.31 MB

 disney - Thumbelina (1994) avi divx xvid - GuySmiley.r06

14.31 MB

 disney - Thumbelina (1994) avi divx xvid - GuySmiley.r07

14.31 MB

 disney - Thumbelina (1994) avi divx xvid - GuySmiley.r08

14.31 MB

 disney - Thumbelina (1994) avi divx xvid - GuySmiley.r09

14.31 MB

 disney - Thumbelina (1994) avi divx xvid - GuySmiley.r10

14.31 MB

 disney - Thumbelina (1994) avi divx xvid - GuySmiley.r11

14.31 MB

 disney - Thumbelina (1994) avi divx xvid - GuySmiley.r12

14.31 MB

 disney - Thumbelina (1994) avi divx xvid - GuySmiley.r13

14.31 MB

 disney - Thumbelina (1994) avi divx xvid - GuySmiley.r14

14.31 MB

 disney - Thumbelina (1994) avi divx xvid - GuySmiley.r15

14.31 MB

 disney - Thumbelina (1994) avi divx xvid - GuySmiley.r16

14.31 MB

 disney - Thumbelina (1994) avi divx xvid - GuySmiley.r17

14.31 MB

 disney - Thumbelina (1994) avi divx xvid - GuySmiley.r18

14.31 MB

 disney - Thumbelina (1994) avi divx xvid - GuySmiley.r19

14.31 MB

 disney - Thumbelina (1994) avi divx xvid - GuySmiley.r20

14.31 MB

 disney - Thumbelina (1994) avi divx xvid - GuySmiley.r21

14.31 MB

 disney - Thumbelina (1994) avi divx xvid - GuySmiley.r22

14.31 MB

 disney - Thumbelina (1994) avi divx xvid - GuySmiley.r23

14.31 MB

 disney - Thumbelina (1994) avi divx xvid - GuySmiley.r24

14.31 MB

 disney - Thumbelina (1994) avi divx xvid - GuySmiley.r25

14.31 MB

 disney - Thumbelina (1994) avi divx xvid - GuySmiley.r26

14.31 MB

 disney - Thumbelina (1994) avi divx xvid - GuySmiley.r27

14.31 MB

 disney - Thumbelina (1994) avi divx xvid - GuySmiley.r28

14.31 MB

 disney - Thumbelina (1994) avi divx xvid - GuySmiley.r29

14.31 MB

 disney - Thumbelina (1994) avi divx xvid - GuySmiley.r30

14.31 MB

 disney - Thumbelina (1994) avi divx xvid - GuySmiley.r31

14.31 MB

 disney - Thumbelina (1994) avi divx xvid - GuySmiley.r32

14.31 MB

 disney - Thumbelina (1994) avi divx xvid - GuySmiley.r33

14.31 MB

 disney - Thumbelina (1994) avi divx xvid - GuySmiley.r34

14.31 MB

 disney - Thumbelina (1994) avi divx xvid - GuySmiley.r35

14.31 MB

 disney - Thumbelina (1994) avi divx xvid - GuySmiley.r36

14.31 MB

 disney - Thumbelina (1994) avi divx xvid - GuySmiley.r37

14.31 MB

 disney - Thumbelina (1994) avi divx xvid - GuySmiley.r38

14.31 MB

 disney - Thumbelina (1994) avi divx xvid - GuySmiley.r39

14.31 MB

 disney - Thumbelina (1994) avi divx xvid - GuySmiley.r40

14.31 MB

 disney - Thumbelina (1994) avi divx xvid - GuySmiley.r41

14.31 MB

 disney - Thumbelina (1994) avi divx xvid - GuySmiley.r42

14.31 MB

 disney - Thumbelina (1994) avi divx xvid - GuySmiley.r43

14.31 MB

 disney - Thumbelina (1994) avi divx xvid - GuySmiley.r44

14.31 MB

 disney - Thumbelina (1994) avi divx xvid - GuySmiley.r45

14.31 MB

 disney - Thumbelina (1994) avi divx xvid - GuySmiley.r46

14.31 MB

 disney - Thumbelina (1994) avi divx xvid - GuySmiley.r47

14.31 MB

 disney - Thumbelina (1994) avi divx xvid - GuySmiley.r48

1.63 MB

 disney - Thumbelina (1994) avi divx xvid - GuySmiley.rar

14.31 MB

 disney - Thumbelina (1994) avi divx xvid - GuySmiley.sfv

8.10 KB
 

Announce URL:

Torrent description

General
------------
Format : AVI
Format/Info : Audio Video Interleave
File size : 696 MiB
Duration : 1h 23mn
Overall bit rate : 1 169 Kbps
Writing application : Nandub v1.0rc2
Writing library : Nandub build 1853/release

Video
Format : MPEG-4 Visual
Codec ID : DIV3
Codec ID/Hint : DivX 3 Low
Duration : 1h 23mn
Bit rate : 1 028 Kbps
Width : 640 pixels
Height : 352 pixels
Display aspect ratio : 16/9
Frame rate : 25.000 fps
Resolution : 24 bits
Bits/(Pixel*Frame) : 0.182
Stream size : 612 MiB (88%)

Audio
Format : MPEG Audio
Format version : Version 1
Format profile : Layer 3
Codec ID : 55
Codec ID/Hint : MP3
Duration : 1h 23mn
Bit rate mode : Constant
Bit rate : 128 Kbps
Channel(s) : 2 channels
Sampling rate : 48.0 KHz
Resolution : 16 bits
Stream size : 76.2 MiB (11%)
Alignment : Aligned on interleaves
Interleave, duration : 24 ms (0.60 video frame)
Interleave, preload duration : 480 ms
Writing library : LAME3.88 (beta)
-------------------------------------------------------------------
PLOT:A girl no bigger than her mother's thumb feels all alone in the
world knowing she is the only person her size. Her wish for a companion
at last comes true when the prince of the faerys arrives at her window sill.
However, the niave Thumbelina's life goes downward from there when a toad
kidnaps her. While she tries to find a way home, she begins to grow up and
learns about hope with the help of the friends she always wanted.
--------------------------------------------------------------------
IMDB: http://www.imdb.com/title/tt0111419/

related torrents

Torrent name

health leech seeds Size
 

comments (0)

Main Menu