Other

Charlotte's Web[H33T][ RICO]

  • Download 5x Faster
  • Download torrent
  • Direct Download
  • Rate this torrent +  |  -
Charlotte's Web[H33T][ RICO]

Free and Direct Download with Usenet.nl 300GB+ free


Torrent info

Name:Charlotte's Web[H33T][ RICO]

Total Size: 701.27 MB

Magnet: Magnet Link

Seeds: 0

Leechers: 0

Stream: Watch Online @ Movie4u

Last Updated: 2010-04-06 23:55:05 (Update Now)

Torrent added: 2009-09-01 06:26:31





Torrent Files List


charlotte's.web-RICO.nfo (Size: 701.27 MB) (Files: 3)

 charlotte's.web-RICO.nfo

8.04 KB

 Charlotte's.Web[2006]DvDrip[Eng]-RICO.avi

701.26 MB

 tracked_by_h33t_com.txt

0.02 KB
 

Announce URL: http://www.h33t.com:3310/announce

Torrent description

General
Complete name : G:\Movies\Charlotte's Web_-RICO\Charlotte's.Web[2006]DvDrip[Eng]-RICO.avi
Format : AVI
Format/Info : Audio Video Interleave
File size : 701 MiB
Duration : 1h 36mn
Overall bit rate : 1 011 Kbps
Writing application : VirtualDubMod 1.5.10.1 (build 2366/release)
Writing library : VirtualDubMod build 2366/release

Video
Format : MPEG-4 Visual
Format profile : Streaming [email protected]
Format settings, BVOP : Yes
Format settings, QPel : No
Format settings, GMC : No warppoints
Format settings, Matrix : Default
Codec ID : DX50
Codec ID/Hint : DivX 5
Duration : 1h 36mn
Bit rate : 873 Kbps
Width : 596 pixels
Height : 326 pixels
Display aspect ratio : 16/9
Frame rate : 23.976 fps
Resolution : 24 bits
Colorimetry : 4:2:0
Scan type : Progressive
Bits/(Pixel*Frame) : 0.188
Stream size : 606 MiB (86%)
Writing library : XviD 1.0.3 (UTC 2004-12-20)

Audio
Format : MPEG Audio
Format version : Version 1
Format profile : Layer 3
Codec ID : 55
Codec ID/Hint : MP3
Duration : 1h 36mn
Bit rate mode : Constant
Bit rate : 128 Kbps
Channel(s) : 2 channels
Sampling rate : 48.0 KHz
Resolution : 16 bits
Stream size : 88.8 MiB (13%)
Alignment : Aligned on interleaves
Interleave, duration : 42 ms (1.00 video frame)
Interleave, preload duration : 504 ms

related torrents

Torrent name

health leech seeds Size

Beetlejuice H33T RICO

0 0 703.26 MB 0

Baby Einstein H33T RICO

11 1 12.42 GB 0
 

comments (0)

Main Menu