Other

Charlie and the Chocolate Factory[H33T][ RICO]

  • Download 5x Faster
  • Download torrent
  • Direct Download
  • Rate this torrent +  |  -
Charlie and the Chocolate Factory[H33T][ RICO]

Free and Direct Download with Usenet.nl 300GB+ free


Torrent info

Name:Charlie and the Chocolate Factory[H33T][ RICO]

Total Size: 900.56 MB

Magnet: Magnet Link

Seeds: 0

Leechers: 0

Stream: Watch Online @ Movie4u

Last Updated: 2010-08-30 05:42:09 (Update Now)

Torrent added: 2009-09-01 06:26:31





Torrent Files List


Charlie.and.the.Chocolate.Factory[2005]DvDrip[Eng]-RICO.avi (Size: 900.56 MB) (Files: 2)

 Charlie.and.the.Chocolate.Factory[2005]DvDrip[Eng]-RICO.avi

900.56 MB

 tracked_by_h33t_com.txt

0.02 KB
 

Announce URL: http://www.h33t.com:3310/announce

Torrent description

General
Complete name : G:\Movies\Charlie and the Chocolate Factory_-RICO\Charlie.and.the.Chocolate.Factory[2005]DvDrip[Eng]-RICO.avi
Format : AVI
Format/Info : Audio Video Interleave
File size : 901 MiB
Duration : 1h 54mn
Overall bit rate : 1 096 Kbps
Writing application : VirtualDubMod 1.5.4.1 (build 2178/release)
Writing library : VirtualDubMod build 2178/release

Video
Format : MPEG-4 Visual
Format settings, BVOP : Yes
Format settings, QPel : No
Format settings, GMC : No warppoints
Format settings, Matrix : Default
Codec ID : DX50
Codec ID/Hint : DivX 5
Duration : 1h 54mn
Bit rate : 967 Kbps
Width : 592 pixels
Height : 336 pixels
Display aspect ratio : 16/9
Frame rate : 23.976 fps
Resolution : 24 bits
Colorimetry : 4:2:0
Scan type : Progressive
Bits/(Pixel*Frame) : 0.203
Stream size : 795 MiB (88%)
Writing library : DivX 2676

Audio
Format : MPEG Audio
Format version : Version 1
Format profile : Layer 3
Codec ID : 55
Codec ID/Hint : MP3
Duration : 1h 54mn
Bit rate mode : Constant
Bit rate : 32.0 Kbps
Channel(s) : 2 channels
Sampling rate : 48.0 KHz
Resolution : 16 bits
Stream size : 95.2 MiB (11%)
Alignment : Aligned on interleaves
Interleave, duration : 24 ms (0.58 video frame)
Interleave, preload duration : 504 ms
Writing library : LAME3.97
Language : English

related torrents

Torrent name

health leech seeds Size
 

comments (0)

Main Menu