Other

BRIDGE TO TERABITHIA [DVDRIP][ENG] KIDZCORNER&J T R

  • Download 5x Faster
  • Download torrent
  • Direct Download
  • Rate this torrent +  |  -
BRIDGE TO TERABITHIA [DVDRIP][ENG] KIDZCORNER&J T R

Free and Direct Download with Usenet 300GB+ free


Torrent info

Name:BRIDGE TO TERABITHIA [DVDRIP][ENG] KIDZCORNER&J T R

Total Size: 701.75 MB

Magnet: Magnet Link

Seeds: 0

Leechers: 0

Stream: Watch Online @ Movie4u

Last Updated: 2012-02-23 12:19:24 (Update Now)

Torrent added: 2009-09-01 06:25:38




Torrent Files List


793697_DV_L_B.JPG (Size: 701.75 MB) (Files: 7)

 793697_DV_L_B.JPG

36.63 KB

 793697_DV_L_F.JPG

34.41 KB

 Bridge_To_Terabithia_R1_-[cdcovers_cc]-cd1.jpg

318.60 KB

 Bridge_To_Terabithia_R1_-[cdcovers_cc]-front.jpg

2.20 MB

 BTOT.avi

699.17 MB

 Torrent downloaded from Demonoid.com-2.txt

0.05 KB

 Tracked by moviesb4time.biz.txt

1.35 KB
 

Announce URL:

Torrent description

From the makers of The Chronicles Of Narnia and based on the award-winning novel written by Katherine Paterson, Bridge to Terabithia is a fantasy adventure story of friendship, family and the power of imagination that you'll want to see again and again.

Jess Aarons is an outsider at school and even in his own family, until he befriends a new girl at school, Leslie Burke. Leslie loves to tell stories of fantasy and magic. Jess loves to draw and together they create the secret kingdom of Terabithia. A magical place that only they can escape to, by swinging on an old rope over a stream in the woods near their homes. There, the friends rule the kingdom, fight the Dark Master and his creatures and plot against the school bullies.

General
Complete name : C:\Users\joker\Documents\BRIDGE TO TERABITHIA-[DVDRIP][ENG]-KIDZCORNER&J.T.R\BTOT.avi
Format : AVI
Format/Info : Audio Video Interleave
File size : 699 MiB
Duration : 1h 31mn
Overall bit rate : 1 071 Kbps
Writing application : FairUse Wizard - http://fairusewizard.com
Writing library : The best and REALLY easy backup tool

Video
Format : MPEG-4 Visual
Format profile : Streaming Video@L1
Format settings, BVOP : Yes
Format settings, QPel : No
Format settings, GMC : No warppoints
Format settings, Matrix : Default
Muxing mode : Packed bitstream
Codec ID : XVID
Codec ID/Hint : XviD
Duration : 1h 31mn
Bit rate : 934 Kbps
Width : 608 pixels
Height : 320 pixels
Display aspect ratio : 1.900
Frame rate : 25.000 fps
Resolution : 24 bits
Colorimetry : 4:2:0
Scan type : Progressive
Bits/(Pixel*Frame) : 0.192
Stream size : 609 MiB (87%)
Writing library : XviD 1.2.0.dev47 (UTC 2006-11-01)

Audio
Format : MPEG Audio
Format version : Version 1
Format profile : Layer 3
Codec ID : 55
Codec ID/Hint : MP3
Duration : 1h 31mn
Bit rate mode : Constant
Bit rate : 128 Kbps
Minimum bit rate : 128 Kbps
Channel(s) : 2 channels
Sampling rate : 48.0 KHz
Resolution : 16 bits
Stream size : 83.5 MiB (12%)
Alignment : Aligned on interleaves
Interleave, duration : 40 ms (1.00 video frame)
Interleave, preload duration : 504 ms
Writing library : LAME3.97
Encoding settings : CBR


related torrents

Torrent name

health leech seeds Size
 

comments (0)

Main Menu