Other

[IT]Monk Staffel 1 DVDRip XviD

  • Download 5x Faster
  • Download torrent
  • Direct Download
  • Rate this torrent +  |  -
[IT]Monk Staffel 1 DVDRip XviD

Free and Direct Download with Usenet.nl 300GB+ free


Torrent info

Name:[IT]Monk Staffel 1 DVDRip XviD

Total Size: 3.89 GB

Magnet: Magnet Link

Seeds: 0

Leechers: 0

Stream: Watch Online @ Movie4u

Last Updated: 2009-12-04 23:53:35 (Update Now)

Torrent added: 2009-09-01 06:20:04





Torrent Files List


Monk.S01E01-02.Mr.Monk.und.das.Attentat.avi (Size: 3.89 GB) (Files: 13)

 Monk.S01E01-02.Mr.Monk.und.das.Attentat.avi

660.92 MB

 Monk.S01E03.Mr.Monk.und.die.Hellseherin.avi

327.88 MB

 Monk.S01E04.Mr.Monk.gegen.die.Qualle.avi

327.63 MB

 Monk.S01E05.Mr.Monk.auf.dem.Rummelplatz.avi

326.61 MB

 Monk.S01E06.Mr.Monk.in.der.Anstalt.avi

328.28 MB

 Monk.S01E07.Mr.Monk.und.ein.Milliardaer.auf.Abwegen.avi

328.54 MB

 Monk.S01E08.Mr.Monk.und.Monica.avi

327.52 MB

 Monk.S01E09.Mr.Monk.und.der.Marathon.Mann.avi

328.17 MB

 Monk.S01E10.Mr.Monk.macht.Urlaub.avi

329.65 MB

 Monk.S01E11.Mr.Monk.und.das.Erdbeben.avi

38.65 MB

 Monk.S01E12.Mr.Monk.und.Willie.Nelson.avi

327.96 MB

 Monk.S01E13.Mr.Monk.im.Flugzeug.avi

327.96 MB

 Thumbs.db

14.50 KB
 

Announce URL: http://intertracker.org/announce.php

Torrent description

Torrent Name: Monk Staffel 1

-------------------------

--> Movie/Serie

Sprache: [X] Deutsch [ ] Englisch [ ] siehe Beschreibung

Video: [ ] HDTV [X] DVD [ ] TV/dTV [ ] TS [ ] Cam [ ] Sonstiges
Audio: [ ] AC3 [X] DVD [ ] TV/dTV [ ] LD [ ] Micro [ ] Sonstiges

Genre: Krimi


Untertitel: keine

Extras: keine



-------------------------
Beschreibung:
Seitdem seine Frau ermordet wurde, leidet der ehemalige Polizeiermittler
Adrian Monk unter starken Phobien. Monk besitzt zwar ein fotografisches
Gedaechtnis und auch seine Faehigkeiten, Faelle zu loesen sind einzigartig,
doch seine Marotten und Ticks kosten ihn den Job: Er wird von der
Polizei in San Francisco suspendiert. Animiert durch Freunde und mit
Hilfe der Krankenschwester Sharona Fleming versucht sich Monk als
freischaffender Detektiv. Ueber mangelnde Arbeit kann er sich nicht
beklagen, denn fuer seine ehemaligen Kollegen ist Monk das Ass im Aermel.
Sobald sein Ex-Chef Captain Stottlemeyer in einem vertrackten Mordfall
auf der Stelle tritt, gibt es nur einen, der den Taeter finden kann
- Monk. Monk ist der wohl schrulligste Detektiv der TV-Krimigeschichte.
Dieser Mann hat vor allem Angst: Vor Menschenmassen, vor Edelsteinen,
vor Hoehe, vor Dunkelheit und Dreck, vor Bakterien und sogar - vor
Milch! Das profane Vorhaben, Socken in einen Waeschetrockner zu stecken,
kann zu einer Panik-Attacke fuehren. Diese Angstzustaende verknuepfen
sich zudem mit einem Ordnungswahn: Alles muss immer an seinem gleichen
Platz sein. Seine Socken verpackt er in Klarsichthuellen, in seinem
Kleiderschrank finden sich ganze Garnituren des immer gleichen Hemdes
und Jackets. Kurzum: Dieser Mann - Monk - ist ein Lebenswerk fuer einen
Psychiater. Durch und durch kompliziert als Person, ist Monk aber
gleichzeitig auch ein hervorragender Detektiv. Seine kriminalistische
Brillanz ist bestechend. 'Monk' feierte am 12. Juli 2002 auf USA Network
Premiere und ist die zur Zeit erfolgreichste fuer das Kabelfernsehen
produzierte Serie in den Vereinigten Staaten.

-------------------------
Technische Details:
General
Format : AVI
Format/Info : Audio Video Interleave
File size : 661 MiB
Duration : 1h 15mn
Overall bit rate : 1232 Kbps
Writing application : Nandub v1.0rc2
Writing library : Nandub build 1852/release

Video
Format : MPEG-4 Visual
Format profile : [email protected]
Format settings, BVOP : No
Format settings, QPel : No
Format settings, GMC : No warppoints
Format settings, Matrix : Default
Codec ID : XVID
Codec ID/Hint : XviD
Duration : 1h 15mn
Bit rate : 1091 Kbps
Width : 640 pixels
Height : 352 pixels
Display aspect ratio : 16/9
Frame rate : 25.000 fps
Original frame rate : 23.976 fps
Resolution : 8 bits
Colorimetry : 4:2:0
Scan type : Progressive
Bits/(Pixel*Frame) : 0.194
Stream size : 586 MiB (89)
Writing library : XviD 0.0.12 (UTC 2003-06-11)

Audio
Format : MPEG Audio
Format version : Version 1
Format profile : Layer 3
Codec ID : 55
Codec ID/Hint : MP3
Duration : 1h 15mn
Bit rate mode : Variable
Bit rate : 128 Kbps
Channel(s) : 2 channels
Sampling rate : 48.0 KHz
Resolution : 16 bits
Stream size : 68.5 MiB (10)
Alignment : Aligned on interleaves
Interleave, duration : 24 ms (0.60 video frame)
Interleave, preload duration : 126 ms
Writing library : LAME3.82

related torrents

Torrent name

health leech seeds Size
 

comments (0)

Main Menu