Other

The Lodger 2009 DVDRIP ZEKTORM

  • Download 5x Faster
  • Download torrent
  • Direct Download
  • Rate this torrent +  |  -
The Lodger 2009 DVDRIP ZEKTORM

Free and Direct Download with Usenet 300GB+ free


Torrent info

Name:The Lodger 2009 DVDRIP ZEKTORM

Total Size: 730.33 MB

Magnet: Magnet Link

Seeds: 0

Leechers: 0

Stream: Watch Online @ Movie4u

Last Updated: 2010-09-22 11:01:45 (Update Now)

Torrent added: 2009-09-01 06:07:42




Torrent Files List


READ.hlp (Size: 730.33 MB) (Files: 4)

 READ.hlp

12.64 KB

 Subs

  The.Lodger.2009.DVDRIP-ZEKTORM.idx

325.28 KB

  The.Lodger.2009.DVDRIP-ZEKTORM.sub

30.05 MB

 The.Lodger.2009.DVDRIP-ZEKTORM.mp4

699.95 MB
 

Announce URL: http://eztv.tracker.thepiratebay.org:80/announce

Torrent description

Title : The Lodger
Year : 2009
Genre : Drama | Horror | Mystery | Thriller
iMDB URL : http://www.imdb.com/title/tt0851530/

Complete name : The.Lodger.2009.DVDRIP-ZEKTORM.mp4
Format : MPEG-4
Format profile : Base Media
Codec ID : isom
File size : 700 MiB
Duration : 1h 35mn
Overall bit rate : 1026 Kbps
Subtitles : English, Spanish, Portuguese, Thai, French, Chinese, Korean (Format: VobSub)
Source : DVD NTSC
Encoded date : UTC 2009-01-30 16:12:16

Video
Format : AVC
Format/Info : Advanced Video Codec
Format profile : [email protected]
Format settings, CABAC : Yes
Format settings, ReFrames : 10 frames
Codec ID : avc1
Codec ID/Info : Advanced Video Coding
Duration : 1h 35mn
Bit rate mode : Variable
Bit rate : 941 Kbps
Maximum bit rate : 8304 Kbps
Width : 720 pixels
Height : 464 pixels
Display aspect ratio : 1.881
Frame rate mode : Constant
Frame rate : 23.976 fps
Resolution : 24 bits
Colorimetry : 4:2:0
Scan type : Progressive
Bits/(Pixel*Frame) : 0.117
Stream size : 642 MiB (92%)
Title : Video
Writing library : x264 core 60 r900 a9af942

Audio
Format : AAC
Format/Info : Advanced Audio Codec
Format version : Version 4
Format profile : LC
Format settings, SBR : Yes
Format settings, PS : No
Codec ID : 40
Duration : 1h 35mn
Bit rate mode : Variable
Bit rate : 81.7 Kbps
Maximum bit rate : 107 Kbps
Channel(s) : 2 channels
Channel positions : L R
Sampling rate : 48.0 KHz
Resolution : 16 bits
Stream size : 55.7 MiB (8%)
Title : English
Language : English

Notes : Convert to DVD with Nero

related torrents

Torrent name

health leech seeds Size
 

comments (0)

Main Menu