Other

The Thomas Crown Affair (1968) w/director commentary

  • Download 5x Faster
  • Download torrent
  • Direct Download
  • Rate this torrent +  |  -
The Thomas Crown Affair (1968) w/director commentary

Anonymous and Direct Download 300GB+ free


Torrent info

Name:The Thomas Crown Affair (1968) w/director commentary

Total Size: 1.89 GB

Magnet: Magnet Link

Seeds: 9

Leechers: 13

Stream: Watch Online @ Movie4u

Last Updated: 0000-00-00 00:00:00 (Update Now)

Torrent added: 2009-09-01 06:05:27




Torrent Files List


info.txt (Size: 1.89 GB) (Files: 11)

 info.txt

3.97 KB

 photothumb.db

25.00 KB

 The Thomas Crown Affair (1968).avi

1.89 GB

 ThomasCrown68grab01.jpg

48.07 KB

 ThomasCrown68grab02.jpg

68.90 KB

 ThomasCrown68grab03.jpg

48.01 KB

 ThomasCrown68grab04.jpg

79.29 KB

 ThomasCrown68grab05.jpg

65.98 KB

 ThomasCrown68grab06.jpg

55.24 KB

 ThomasCrown68grab07.jpg

46.97 KB

 Torrent downloaded from Demonoid.com.txt

0.05 KB
 

Announce URL: http://inferno.demonoid.com:3414/announce

Torrent description

Norman Jewison's stylish romantic caper, featuring Steve McQueen in a rare cerebral role, is an enjoyably lightweight compendium of '60s film technique.

It begins as a cat-and-mouse game between a wealthy businessman (McQueen), who has masterminded a spectacularly complex bank heist for his own amusement, and the brilliant insurance investigator (Faye Dunaway) assigned to the case, but the film slides into a higher gear when they fall for each other.

More romance than heist, the film capitalizes on the powerful chemistry of the two stars, who were never photographed as stunningly as they are here by the legendary Haskell Wexler.

In a celebrated six-minute set piece, a wordless chess game between the two develops into an increasingly intense pas de deux of visual foreplay; near its climax, a rapt McQueen gazes on while Dunaway contemplatively fondles the head of a bishop. The wariness of the couple, who can never entirely trust one another, only heightens the atmosphere of erotic frisson.

Michel Legrand's layers his catchy score with interlocking ostinatos which echo the film's visual motif of circularity, while adding an undercurrent of playfulness.

The film's adolescent fantasy of omnipotence may have no more substance than a soap bubble, and its frenetic inventory of '60s visual gimmicks can sometimes seem painfully anachronistic, but it remains a skillfully concocted diversion.

The Thomas Crown Affair (1968).avi
Format : AVI
Format/Info : Audio Video Interleave
File size : 1.89 GiB
Duration : 1h 37mn
Overall bit rate : 2 761 Kbps
Writing application : VirtualDubMod 1.5.4.1 (build 2178/release)
Writing library : VirtualDubMod build 2178/release
Video
Format : MPEG-4 Visual
Format profile : Streaming [email protected]
Format settings, BVOP : Yes
Format settings, QPel : No
Format settings, GMC : No warppoints
Format settings, Matrix : Custom
Codec ID : XVID
Codec ID/Hint : XviD
Duration : 1h 37mn
Bit rate : 2 347 Kbps
Width : 720 pixels
Height : 384 pixels
Display aspect ratio : 1.875
Frame rate : 25.000 fps
Resolution : 24 bits
Colorimetry : 4:2:0
Scan type : Progressive
Bits/(Pixel*Frame) : 0.340
Stream size : 1.60 GiB (85%)
Writing library : XviD 50
Audio
Format : AC-3
Format/Info : Audio Coding 3
Codec ID : 2000
Duration : 1h 37mn
Bit rate mode : Constant
Bit rate : 320 Kbps
Channel(s) : 2 channels
Channel positions : L R
Sampling rate : 48.0 KHz
Stream size : 224 MiB (12%)
Alignment : Aligned on interleaves
Interleave, duration : 96 ms (2.40 video frames)
Interleave, preload duration : 96 ms
Language : English
Audio
Format : MPEG Audio
Format version : Version 1
Format profile : Layer 3
Codec ID : 55
Codec ID/Hint : MP3
Duration : 1h 37mn
Bit rate mode : Variable
Bit rate : 78.9 Kbps
Minimum bit rate : 96.0 Kbps
Channel(s) : 1 channel
Sampling rate : 48.0 KHz
Resolution : 16 bits
Stream size : 55.2 MiB (3%)
Alignment : Aligned on interleaves
Interleave, duration : 24 ms (0.60 video frame)
Interleave, preload duration : 545 ms
Writing library : LAME3.98r
Encoding settings : ABR
Language : English

related torrents

Torrent name

health leech seeds Size
 


comments (0)

Main Menu