Other

The Informers AC3 5,1 DVDRip[Eng]2009

  • Download 5x Faster
  • Download torrent
  • Direct Download
  • Rate this torrent +  |  -
The Informers AC3 5,1 DVDRip[Eng]2009

Free and Direct Download with Usenet.nl 300GB+ free


Torrent info

Name:The Informers AC3 5,1 DVDRip[Eng]2009

Total Size: 1.30 GB

Magnet: Magnet Link

Seeds: 2

Leechers: 3

Stream: Watch Online @ Movie4u

Last Updated: 2010-10-05 04:24:13 (Update Now)

Torrent added: 2009-09-01 05:58:28





Torrent Files List


The Informers-AC3-5,1-DVDRip[Eng]2009.avi (Size: 1.30 GB) (Files: 3)

 The Informers-AC3-5,1-DVDRip[Eng]2009.avi

1.30 GB

 The Informers-AC3-5,1-DVDRip[Eng]2009.txt

2.76 KB

 Torrent downloaded from Demonoid.com.txt

0.05 KB
 

Announce URL: http://inferno.demonoid.com:3418/announce

Torrent description

http://www.imdb.com/title/tt0865554/

http://www.theinformers.com/

User Rating:7.2/10 - 1,301 votes

Crime,Drama,Thriller

Director:Gregor Jordan

Cast:Billy Bob Thornton/Kim Basinger/Mickey Rourke/Winona Ryder, and others.

Plot:
A multi-strand narrative set in early 1980's Los Angeles, centered on an array of characters who represent both the top of the heap (a Hollywood
dream merchant, a dissolute rock star, an aging newscaster) and the bottom (a voyeuristic doorman, an amoral ex-con). Connecting the intertwining
strands are a group of beautiful, blonde young men and women who sleep all day and party all night, doing drugs -- and one another --with abandon,
never realizing that they are dancing on the edge of a volcano.......

Info:

General
Complete name : The Informers-AC3-5,1-DVDRip[Eng]2009.avi
Format : AVI
Format/Info : Audio Video Interleave
File size : 1.30 GiB
Duration : 1h 37mn
Overall bit rate : 1 904 Kbps
Writing application : VirtualDubMod 1.5.4.1 (build 2178/release)
Writing library : VirtualDubMod build 2178/release

Video
Format : MPEG-4 Visual
Format profile : [email protected]
Format settings, BVOP : No
Format settings, QPel : No
Format settings, GMC : No warppoints
Format settings, Matrix : Default
Codec ID : XVID
Codec ID/Hint : XviD
Duration : 1h 37mn
Bit rate : 1 446 Kbps
Width : 704 pixels
Height : 304 pixels
Display aspect ratio : 2.35
Frame rate : 23.976 fps
Resolution : 24 bits
Colorimetry : 4:2:0
Scan type : Progressive
Bits/(Pixel*Frame) : 0.282
Stream size : 1 012 MiB (76%)
Writing library : XviD 1.1.2 (UTC 2006-11-01)

Audio
Format : AC-3
Format/Info : Audio Coding 3
Codec ID : 2000
Duration : 1h 37mn
Bit rate mode : Constant
Bit rate : 448 Kbps
Channel(s) : 6 channels
Channel positions : Front: L C R, Surround: L R, LFE
Sampling rate : 48.0 KHz
Stream size : 313 MiB (24%)
Alignment : Split accross interleaves
Interleave, duration : 42 ms (1.00 video frame)
Interleave, preload duration : 500 ms

Enjoy...

related torrents

Torrent name

health leech seeds Size
 

comments (0)

Main Menu