Other

Taken In Broad Daylight DVDRip TFE

  • Download 5x Faster
  • Download torrent
  • Direct Download
  • Rate this torrent +  |  -
Taken In Broad Daylight DVDRip TFE

Free and Direct Download with Usenet.nl 300GB+ free


Torrent info

Name:Taken In Broad Daylight DVDRip TFE

Total Size: 698.07 MB

Magnet: Magnet Link

Seeds: 0

Leechers: 0

Stream: Watch Online @ Movie4u

Last Updated: 2009-12-04 23:44:35 (Update Now)

Torrent added: 2009-09-01 05:48:14





Torrent Files List


Taken In Broad Daylight DVDRip TFE.part01.rar (Size: 698.07 MB) (Files: 50)

 Taken In Broad Daylight DVDRip TFE.part01.rar

14.31 MB

 Taken In Broad Daylight DVDRip TFE.part02.rar

14.31 MB

 Taken In Broad Daylight DVDRip TFE.part03.rar

14.31 MB

 Taken In Broad Daylight DVDRip TFE.part04.rar

14.31 MB

 Taken In Broad Daylight DVDRip TFE.part05.rar

14.31 MB

 Taken In Broad Daylight DVDRip TFE.part06.rar

14.31 MB

 Taken In Broad Daylight DVDRip TFE.part07.rar

14.31 MB

 Taken In Broad Daylight DVDRip TFE.part08.rar

14.31 MB

 Taken In Broad Daylight DVDRip TFE.part09.rar

14.31 MB

 Taken In Broad Daylight DVDRip TFE.part10.rar

14.31 MB

 Taken In Broad Daylight DVDRip TFE.part11.rar

14.31 MB

 Taken In Broad Daylight DVDRip TFE.part12.rar

14.31 MB

 Taken In Broad Daylight DVDRip TFE.part13.rar

14.31 MB

 Taken In Broad Daylight DVDRip TFE.part14.rar

14.31 MB

 Taken In Broad Daylight DVDRip TFE.part15.rar

14.31 MB

 Taken In Broad Daylight DVDRip TFE.part16.rar

14.31 MB

 Taken In Broad Daylight DVDRip TFE.part17.rar

14.31 MB

 Taken In Broad Daylight DVDRip TFE.part18.rar

14.31 MB

 Taken In Broad Daylight DVDRip TFE.part19.rar

14.31 MB

 Taken In Broad Daylight DVDRip TFE.part20.rar

14.31 MB

 Taken In Broad Daylight DVDRip TFE.part21.rar

14.31 MB

 Taken In Broad Daylight DVDRip TFE.part22.rar

14.31 MB

 Taken In Broad Daylight DVDRip TFE.part23.rar

14.31 MB

 Taken In Broad Daylight DVDRip TFE.part24.rar

14.31 MB

 Taken In Broad Daylight DVDRip TFE.part25.rar

14.31 MB

 Taken In Broad Daylight DVDRip TFE.part26.rar

14.31 MB

 Taken In Broad Daylight DVDRip TFE.part27.rar

14.31 MB

 Taken In Broad Daylight DVDRip TFE.part28.rar

14.31 MB

 Taken In Broad Daylight DVDRip TFE.part29.rar

14.31 MB

 Taken In Broad Daylight DVDRip TFE.part30.rar

14.31 MB

 Taken In Broad Daylight DVDRip TFE.part31.rar

14.31 MB

 Taken In Broad Daylight DVDRip TFE.part32.rar

14.31 MB

 Taken In Broad Daylight DVDRip TFE.part33.rar

14.31 MB

 Taken In Broad Daylight DVDRip TFE.part34.rar

14.31 MB

 Taken In Broad Daylight DVDRip TFE.part35.rar

14.31 MB

 Taken In Broad Daylight DVDRip TFE.part36.rar

14.31 MB

 Taken In Broad Daylight DVDRip TFE.part37.rar

14.31 MB

 Taken In Broad Daylight DVDRip TFE.part38.rar

14.31 MB

 Taken In Broad Daylight DVDRip TFE.part39.rar

14.31 MB

 Taken In Broad Daylight DVDRip TFE.part40.rar

14.31 MB

 Taken In Broad Daylight DVDRip TFE.part41.rar

14.31 MB

 Taken In Broad Daylight DVDRip TFE.part42.rar

14.31 MB

 Taken In Broad Daylight DVDRip TFE.part43.rar

14.31 MB

 Taken In Broad Daylight DVDRip TFE.part44.rar

14.31 MB

 Taken In Broad Daylight DVDRip TFE.part45.rar

14.31 MB

 Taken In Broad Daylight DVDRip TFE.part46.rar

14.31 MB

 Taken In Broad Daylight DVDRip TFE.part47.rar

14.31 MB

 Taken In Broad Daylight DVDRip TFE.part48.rar

14.31 MB

 Taken In Broad Daylight DVDRip TFE.part49.rar

11.42 MB

 nfo.nfo

2.22 KB
 

Announce URL: http://open.tracker.thepiratebay.org/announce

Torrent description

Taken In Broad Daylight DVDRip TFE

Plot:
Taken in Broad Daylight is the true,
inspiring story of a brutal crime, a
cross-country odyssey, and a victim's
bravery and courage to survive against
all odds.

Anne Sluti was kidnapped from a mall
parking lot by career criminal Tony
Zappa, brutally beaten, bound, and moved
across three states before a dramatic
standoff at a secluded cabin ended
Zappa's horrific crime spree. Anne's
ability to manipulate her captor and
secretly leave clues of their whereabouts
led to her safe release, and ultimately,
her survival. James Van Der Beek, Sara Canning,
and LeVar Burton star in this retelling of
one of the most riveting kidnapping cases in modern history.


Video
Format : MPEG-4 Visual
Format profile : [email protected]
Format settings, BVOP : No
Format settings, QPel : No
Format settings, GMC : No warppoints
Format settings, Matrix : Default (H.263)
Codec ID : XVID
Codec ID/Hint : XviD
Duration : 1h 26mn
Bit rate : 989 Kbps
Width : 624 pixels
Height : 384 pixels
Display aspect ratio : 1.625
Frame rate : 23.976 fps
Resolution : 24 bits
Colorimetry : 4:2:0
Scan type : Progressive
Bits/(Pixel*Frame) : 0.172
Stream size : 613 MiB (88%)
Writing library : XviD 1.2.0.dev47 (UTC 2006-11-01)

Audio
Format : MPEG Audio
Format version : Version 1
Format profile : Layer 3
Codec ID : 55
Codec ID/Hint : MP3
Duration : 1h 26mn
Bit rate mode : Constant
Bit rate : 128 Kbps
Channel(s) : 2 channels
Sampling rate : 48.0 KHz
Resolution : 16 bits
Stream size : 79.4 MiB (11%)

enjoy;)

torrent downloaded from http://place2bscene.co.uk plz come and join us

related torrents

Torrent name

health leech seeds Size
 

comments (0)

Main Menu