Other

Streets of Blood AC3 5,1 DVDRip[Eng]2009

  • Download 5x Faster
  • Download torrent
  • Direct Download
  • Rate this torrent +  |  -
Streets of Blood AC3 5,1 DVDRip[Eng]2009

Free and Direct Download with Usenet 300GB+ free


Torrent info

Name:Streets of Blood AC3 5,1 DVDRip[Eng]2009

Total Size: 1.36 GB

Magnet: Magnet Link

Seeds: 5

Leechers: 1

Stream: Watch Online @ Movie4u

Last Updated: 2010-09-24 21:59:04 (Update Now)

Torrent added: 2009-09-01 05:46:56




Torrent Files List


Streets of Blood-AC3-5,1-DVDRip[Eng]2009.avi (Size: 1.36 GB) (Files: 3)

 Streets of Blood-AC3-5,1-DVDRip[Eng]2009.avi

1.36 GB

 Streets of Blood-AC3-5,1-DVDRip[Eng]2009.txt

2.45 KB

 Torrent downloaded from Demonoid.com.txt

0.05 KB
 

Announce URL: http://inferno.demonoid.com:3416/announce

Torrent description

http://www.imdb.com/title/tt1203523/

User Rating:4.9/10 - 593 votes

Crime,Drama,Thriller

Director:Charles Winkler

Cast:Val Kilmer/Sharon Stone/50 Cent/Michael Biehn, and others.

Plot:
A police officer's partner has died during Hurricane Katrina, but he later discovers that his partner may have been murdered. An investigation
follows, taking the officer and his new partner into the depths of the criminal underworld....

Info:

General
Complete name : Streets of Blood-AC3-5,1-DVDRip[Eng]2009.avi
Format : AVI
Format/Info : Audio Video Interleave
File size : 1.36 GiB
Duration : 1h 34mn
Overall bit rate : 2 054 Kbps
Writing application : VirtualDubMod 1.5.4.1 (build 2178/release)
Writing library : VirtualDubMod build 2178/release

Video
Format : MPEG-4 Visual
Format profile : [email protected]
Format settings, BVOP : No
Format settings, QPel : No
Format settings, GMC : No warppoints
Format settings, Matrix : Default
Codec ID : XVID
Codec ID/Hint : XviD
Duration : 1h 34mn
Bit rate : 1 597 Kbps
Width : 720 pixels
Height : 400 pixels
Display aspect ratio : 16/9
Frame rate : 23.976 fps
Resolution : 24 bits
Colorimetry : 4:2:0
Scan type : Progressive
Bits/(Pixel*Frame) : 0.231
Stream size : 1.06 GiB (78%)
Writing library : XviD 1.1.2 (UTC 2006-11-01)

Audio
Format : AC-3
Format/Info : Audio Coding 3
Codec ID : 2000
Duration : 1h 34mn
Bit rate mode : Constant
Bit rate : 448 Kbps
Channel(s) : 6 channels
Channel positions : Front: L C R, Surround: L R, LFE
Sampling rate : 48.0 KHz
Stream size : 304 MiB (22%)
Alignment : Split accross interleaves
Interleave, duration : 42 ms (1.00 video frame)
Interleave, preload duration : 500 ms

Enjoy...

related torrents

Torrent name

health leech seeds Size
 

comments (0)

Main Menu