Other

Se7en [Special Edition] 1995 DVDRip x264 DTS ES [6 1] VLiS

  • Download 5x Faster
  • Download torrent
  • Direct Download
  • Rate this torrent +  |  -
Se7en [Special Edition] 1995 DVDRip x264 DTS ES [6 1] VLiS

Anonymous and Direct Download 300GB+ free


Torrent info

Name:Se7en [Special Edition] 1995 DVDRip x264 DTS ES [6 1] VLiS

Total Size: 1.75 GB

Magnet: Magnet Link

Seeds: 22

Leechers: 11

Stream: Watch Online @ Movie4u

Last Updated: 0000-00-00 00:00:00 (Update Now)

Torrent added: 2009-09-01 05:40:34




Torrent Files List


Se7en [Special Edition].1995.DVDRip.x264.DTS-ES [6.1]-VLiS.mkv (Size: 1.75 GB) (Files: 3)

 Se7en [Special Edition].1995.DVDRip.x264.DTS-ES [6.1]-VLiS.mkv

1.75 GB

 Torrent downloaded from Demonoid.com.txt

0.05 KB

 tracked_by_h33t_com.txt

0.02 KB
 

Announce URL: http://inferno.demonoid.com:3417/announce

Torrent description

http://www.imdb.com/title/tt0114369/

Se7en [Special Edition].1995.DVDRip.x264.DTS-ES [6.1]-VLiS


Movie Title: Se7en (Seven)

Director: David Fincher

Cast: Brad Pitt, Morgan Freeman, Gwyneth Paltrow


This is a DVDRip of the film in MKV format (Matroska container). You will need VLC Player to view the movie.

For even better results, and in order to enable H.264 playback in Windows Media Player the following software is suggested:

CoreAVC
Haali Media Splitter
AC3 Filter
VobSub & VSFilter (For the Subtitles)

Recommended Codec Pack: CCCP - Combined Community Codec Pack


Language: English

Optional English Subtitles [Muxed in the Matroska Container]


General
Format : Matroska
File size : 1.75 GiB
Duration : 2h 1mn
Overall bit rate : 2 057 Kbps
Mkv Chapters Option : Yes (37 Chapters)

Video
ID : 1
Format : AVC
Format/Info : Advanced Video Codec
Format profile : High@L3.1
Format settings, CABAC : Yes
Format settings, ReFrames : 6 frames
Muxing mode : Container profile=Unknown@3.1
Codec ID : V_MPEG4/ISO/AVC
Duration : 2h 1mn
Bit rate : 1 262 Kbps
Nominal bit rate : 1 300 Kbps
Width : 720 pixels
Height : 304 pixels
Display aspect ratio : 2.35
Frame rate : 25.000 fps
Resolution : 24 bits
Colorimetry : 4:2:0
Scan type : Progressive
Bits/(Pixel*Frame) : 0.231
Stream size : 1.07 GiB (61%)
Writing library : x264 core 68 r1181M 49bf767

Audio
ID : 2
Format : DTS
Format/Info : Digital Theater Systems
Format profile : ES
Codec ID : A_DTS
Duration : 2h 1mn
Bit rate mode : Constant
Bit rate : 755 Kbps
Channel(s) : 7 channels
Channel positions : Front: L C R, Rear: L C R, LFE
Sampling rate : 48.0 KHz
Resolution : 16 bits
Stream size : 656 MiB (37%)
Language : English

Screenshots:
Se7en [Special Edition] 1995 DVDRip x264 DTS ES [6 1] VLiS preview 2
Se7en [Special Edition] 1995 DVDRip x264 DTS ES [6 1] VLiS preview 3
Se7en [Special Edition] 1995 DVDRip x264 DTS ES [6 1] VLiS preview 4
Se7en [Special Edition] 1995 DVDRip x264 DTS ES [6 1] VLiS preview 5
Se7en [Special Edition] 1995 DVDRip x264 DTS ES [6 1] VLiS preview 6

Instructions using the subtitle streams

--------------------------------------------------
Viewing the subtitles with VLC Player:
--------------------------------------------------

Video-->Subtitles Track-->Select

Subtitle Screenshot for VLC Player:
Se7en [Special Edition] 1995 DVDRip x264 DTS ES [6 1] VLiS preview 0

--------------------------------------------------------------
Viewing the subtitles with Haali Media Splitter
--------------------------------------------------------------

Right click on Haali tray icon-->Select subtitles

**NOTE**
VobSub & VSFilter must be installed

Subtitle Screenshot for Haali Media Splitter:
Se7en [Special Edition] 1995 DVDRip x264 DTS ES [6 1] VLiS preview 1


*** N O T E S ***

As this is one of my favourite films ever, i took extra care of it.
I hope you guys are satisfied with the result, let me know.

I used the 2-disc Special Edition as my source.

" 2.35:1 aspect ratio with an anamorphic transfer. Digitally remastered, Darius Khondji's cinematography receives full justice.
Sharpness and detail are excellent throughout the presentation, with a depth to the picture at times that is pretty remarkable.
This transfer underwent extensive remastering, and it definitely shows. Fincher's original vision for the film is preserved perfectly. "

I muxed the DTS sound stream, intact from the DVD. DTS-ES (Extended Surround), 6.1 discrete channels.

"New Line has also remastered the sound, the audio has been reprocessed into a true 6.1 channel mix (DTS ES 6.1)
The level of detail within the mix, even down to the tiniest of detail, is mixed to perfection.
The new audio mix extensively utilizes directional effects throughout the film with the surround channels being used continuously.
The subwoofer channel is heavily used throughout to support the score as well as effects such as gunshots."


Encoded By VLiS

related torrents

Torrent name

health leech seeds Size
 


comments (0)

Main Menu