Other

Satan 2007 DVDRIP XviD ZEKTORM

  • Download 5x Faster
  • Download torrent
  • Direct Download
  • Rate this torrent +  |  -
Satan 2007 DVDRIP XviD ZEKTORM

Download FREE And Anonymously


Torrent info

Name:Satan 2007 DVDRIP XviD ZEKTORM

Total Size: 703.10 MB

Magnet: Magnet Link

Seeds: 0

Leechers: 0

Stream: Watch Full Movie @ Movie4u

Last Updated: 2013-12-27 12:36:50 (Update Now)

Torrent added: 2009-09-01 05:38:49



VPN For Torrents

Torrent Files List


READ.hlp (Size: 703.10 MB) (Files: 4)

 READ.hlp

11.88 KB

 Satan.2007.DVDRIP.XviD-ZEKTORM.avi

701.02 MB

 Subs

  Satan.2007.DVDRIP.XviD-ZEKTORM.idx

35.49 KB

  Satan.2007.DVDRIP.XviD-ZEKTORM.sub

2.04 MB
 

Announce URL:

Torrent description

Title : Satanás
Also Known As : Satan
Year : 2007
Genre : Crime | Drama
iMDB URL : http://www.imdb.com/title/tt0473697/
Awards : 4 wins & 3 nominations

Complete name : Satan.2007.DVDRIP.XviD-ZEKTORM.avi
Format : AVI
File size : 701 MiB
Duration : 1h 35mn
Overall bit rate : 1022 Kbps
Subtitles : English (Format: VobSub)
Source : DVD NTSC

Video
Format : MPEG-4 Visual
Format profile : Streaming [email protected]
Codec ID : DX50
Codec ID/Hint : DivX 5
Duration : 1h 35mn
Bit rate : 885 Kbps
Width : 640 pixels
Height : 480 pixels
Display aspect ratio : 4/3
Frame rate : 29.970 fps
Resolution : 24 bits
Colorimetry : 4:2:0
Scan type : Progressive
Bits/(Pixel*Frame) : 0.096
Stream size : 607 MiB (87%)
Writing library : XviD

Audio
Format : MPEG Audio
Format version : Version 1
Format profile : Layer 3
Codec ID : 55
Codec ID/Hint : MP3
Duration : 1h 35mn
Bit rate mode : Constant
Bit rate : 128 Kbps
Minimum bit rate : 128 Kbps
Channel(s) : 2 channels
Sampling rate : 48.0 KHz
Resolution : 16 bits
Stream size : 87.8 MiB (13%)
Language : Spanish
Writing library : LAME3.98r
Encoding settings : CBR

related torrents

Torrent name

health leech seeds Size
 


comments (0)

Main Menu

 

script data-cfasync="false" src="//d2ghscazvn398x.cloudfront.net/?cshgd=690275">