Other

S Darko AC3 5,1 DVDRip[Eng]2009

  • Download 5x Faster
  • Download torrent
  • Direct Download
  • Rate this torrent +  |  -
S Darko AC3 5,1 DVDRip[Eng]2009

Free and Direct Download with Usenet 300GB+ free


Torrent info

Name:S Darko AC3 5,1 DVDRip[Eng]2009

Total Size: 1.37 GB

Magnet: Magnet Link

Seeds: 10

Leechers: 6

Stream: Watch Online @ Movie4u

Last Updated: 2010-09-24 21:59:11 (Update Now)

Torrent added: 2009-09-01 05:38:16




Torrent Files List


S.Darko-AC3-5,1-DVDRip[Eng]2009-Front.jpg (Size: 1.37 GB) (Files: 4)

 S.Darko-AC3-5,1-DVDRip[Eng]2009-Front.jpg

1.00 MB

 S.Darko-AC3-5,1-DVDRip[Eng]2009.avi

1.36 GB

 S.Darko-AC3-5,1-DVDRip[Eng]2009.nfo

3.75 KB

 Torrent downloaded from Demonoid.com.txt

0.05 KB
 

Announce URL: http://inferno.demonoid.com:3412/announce

Torrent description

http://www.imdb.com/title/tt1231277/

http://www.sdarko.com/

User Rating:4.1/10 - 890 votes

Crime/Mystery/Sci-Fi/Thriller

Director:Chris Fisher

Cast:Elizabeth Berkley/Daveigh Chase/Matthew Davis/Briana Evigan, and others.

Plot:
The story picks up seven years after the first film when little sister Samantha Darko and her best friend
Corey are now 18 and on a roadtrip to Los Angeles when they are plagued by bizarre visions...

Info:

Cover included.

General
Format : AVI
Format/Info : Audio Video Interleave
File size : 1.36 GiB
Duration : 1h 43mn
Overall bit rate : 1 894 Kbps
Writing application : VirtualDubMod 1.5.10.2 (build 2540/release)
Writing library : VirtualDubMod build 2540/release

Video
Format : MPEG-4 Visual
Format profile : Streaming [email protected]
Format settings, BVOP : Yes
Format settings, QPel : No
Format settings, GMC : No warppoints
Format settings, Matrix : Default
Muxing mode : Packed bitstream
Codec ID : XVID
Codec ID/Hint : XviD
Duration : 1h 43mn
Bit rate : 1 437 Kbps
Width : 720 pixels
Height : 400 pixels
Display aspect ratio : 16/9
Frame rate : 23.976 fps
Resolution : 24 bits
Colorimetry : 4:2:0
Scan type : Progressive
Bits/(Pixel*Frame) : 0.208
Stream size : 1.04 GiB (76%)
Writing library : XviD 50

Audio
Format : AC-3
Format/Info : Audio Coding 3
Codec ID : 2000
Duration : 1h 43mn
Bit rate mode : Constant
Bit rate : 448 Kbps
Channel(s) : 6 channels
Channel positions : Front: L C R, Surround: L R, LFE
Sampling rate : 48.0 KHz
Stream size : 331 MiB (24%)
Alignment : Split accross interleaves
Interleave, duration : 42 ms (1.00 video frame)
Interleave, preload duration : 500 ms

Enjoy...

related torrents

Torrent name

health leech seeds Size
 

comments (0)

Main Menu