Other

Pigs and Battleships 1961 CRITERION DVDRip x264 AC3 KARiNA

  • Download 5x Faster
  • Download torrent
  • Direct Download
  • Rate this torrent +  |  -
Pigs and Battleships 1961 CRITERION DVDRip x264 AC3 KARiNA

Free and Direct Download with Usenet.nl 300GB+ free


Torrent info

Name:Pigs and Battleships 1961 CRITERION DVDRip x264 AC3 KARiNA

Total Size: 1.66 GB

Magnet: Magnet Link

Seeds: 0

Leechers: 0

Stream: Watch Online @ Movie4u

Last Updated: 2012-03-19 16:35:20 (Update Now)

Torrent added: 2009-09-01 05:30:11





Torrent Files List


Pigs.and.Battleships.1961.CRITERION.DVDRip.x264.AC3-KARiNA.mkv (Size: 1.66 GB) (Files: 3)

 Pigs.and.Battleships.1961.CRITERION.DVDRip.x264.AC3-KARiNA.mkv

1.66 GB

 pigs-KARiNA.nfo

5.14 KB

 Torrent downloaded from Demonoid.com.txt

0.05 KB
 

Announce URL:

Torrent description

888 d8P d8888 8888888b. d8b 888b 888 d8888
888 d8P d88888 888 Y88b Y8P 8888b 888 d88888
888 d8P d88P888 888 888 88888b 888 d88P888
888d88K d88P 888 888 d88P 888 888Y88b 888 d88P 888
8888888b d88P 888 8888888P" 888 888 Y88b888 d88P 888
888 Y88b d88P 888 888 T88b 888 888 Y88888 d88P 888
888 Y88b d8888888888 888 T88b 888 888 Y8888 d8888888888
888 Y88b d88P 888 888 T88b 888 888 Y888 d88P 888

Pigs.and.Battleships.1961.CRITERION.DVDRip.x264.AC3-KARiNA.mkv

Synopsis.

Pigs and Battleships | Japan | 1961 | Directed by Shohei Imamura

A dazzling, unruly portrait of postwar Japan, Pigs and Battleships details, with
escalating absurdity, the desperate power struggles between small-time gangsters in
the port town of Yokosuka. Shot in gorgeously composed, bustling CinemaScope, the
film follows a young couple as they try to navigate Yokosuka? corrupt businessmen,
chimpira, and their own unsure future together. With its breakneck pacing and
constantly inventive cinematography, this film marked Shohei Imamura as a major
voice in Japanese cinema.

IMdB: http://www.imdb.com/title/tt0054709/ | Rating: 7.6 / 10 (225 votes)

General.

Complete name : Pigs.and.Battleships.1961.CRITERION.DVDRip.x264.AC3-KARiNA.mkv
Format : Matroska
File size : 1.66 GiB
Duration : 1h 48mn
Overall bit rate : 2 194 Kbps
Source : Criterion NTSC DVD9

Video.

Format : AVC
Codec ID : V_MPEG4/ISO/AVC
Bit rate : 1 958 Kbps
Nominal bit rate : 2 000 Kbps
Width : 720 pixels
Height : 368 pixels
Display aspect ratio : 2.35
Frame rate : 23.976 fps
Resolution : 24 bits
Colorimetry : 4:2:0
Scan type : Progressive
Bits/(Pixel*Frame) : 0.308
Stream size : 1.48 GiB (89%)
Title : Track 1
Writing library : x264 core 65

Audio.

Format : AC-3
Codec ID : A_AC3
Bit rate mode : Constant
Bit rate : 192 Kbps
Channel(s) : 1 channel
Channel positions : C
Sampling rate : 48.0 KHz
Stream size : 149 MiB (9%)
Title : Track 1
Language : Japane

Subtitles.

Format : UTF-8
Codec ID : S_TEXT/UTF8
Language : English

Chapters.

00:00:00.000 : :Chapter 1
00:05:22.655 : :Chapter 2
00:15:22.554 : :Chapter 3
00:19:53.025 : :Chapter 4
00:22:31.516 : :Chapter 5
00:26:50.609 : :Chapter 6
00:30:55.320 : :Chapter 7
00:37:14.031 : :Chapter 8
00:41:17.141 : :Chapter 9
00:44:14.652 : :Chapter 10
00:50:29.659 : :Chapter 11
00:53:16.026 : :Chapter 12
00:55:56.653 : :Chapter 13
01:05:38.267 : :Chapter 14
01:12:39.688 : :Chapter 15
01:18:29.538 : :Chapter 16
01:23:56.865 : :Chapter 17
01:31:06.461 : :Chapter 18
01:43:58.899 : :Chapter 19
01:48:19.493 : :Chapter 20

KARiNA.

related torrents

Torrent name

health leech seeds Size
 

comments (0)

Main Menu