Other

Perfect Crimes 2002 {DvDRiP Xvid}[1337x][blackjesus]

  • Download 5x Faster
  • Download torrent
  • Direct Download
  • Rate this torrent +  |  -
Perfect Crimes 2002 {DvDRiP Xvid}[1337x][blackjesus]

Anonymous and Direct Download 300GB+ free


Torrent info

Name:Perfect Crimes 2002 {DvDRiP Xvid}[1337x][blackjesus]

Total Size: 801.63 MB

Magnet: Magnet Link

Seeds: 0

Leechers: 1

Stream: Watch Online @ Movie4u

Last Updated: 2010-08-09 14:36:30 (Update Now)

Torrent added: 2009-09-01 05:29:39




Torrent Files List


11268-large.jpg (Size: 801.63 MB) (Files: 5)

 11268-large.jpg

16.11 KB

 1337x.org.txt

0.02 KB

 BlAcKjEsUs.txt

0.30 KB

 INFO.txt

2.55 KB

 Perfect Crimes.avi

801.61 MB
 

Announce URL: http://genesis.1337x.org:1337/announce

Torrent description

Perfect crimes 2002




A repackaged release of the 1993 tv series 'Fallen Angels'. This DVD contains three detective stories. The first and second are valient efforts but offer nothing new but try and mimic film noir chic but with the production values of a bad TV movie.

The third directed by Steven Soderbergh has wonderful camerawork, great perfomances and a wonderfully subversive storyline.




Video
Format : MPEG-4 Visual
Format profile : Streaming [email protected]
Format settings, BVOP : Yes
Format settings, QPel : No
Format settings, GMC : No warppoints
Format settings, Matrix : Default (H.263)
Muxing mode : Packed bitstream
Codec ID : XVID
Codec ID/Hint : XviD
Duration : 2h 0mn
Bit rate : 809 Kbps
Width : 480 pixels
Height : 336 pixels
Display aspect ratio : 1.429
Frame rate : 25.000 fps
Resolution : 24 bits
Colorimetry : 4:2:0
Scan type : Progressive
Bits/(Pixel*Frame) : 0.201
Stream size : 698 MiB (87%)
Writing library : XviD 1.2.1 (UTC 2008-12-04)

Audio
Format : MPEG Audio
Format version : Version 1
Format profile : Layer 3
Codec ID : 55
Codec ID/Hint : MP3
Duration : 2h 0mn
Bit rate mode : Variable
Bit rate : 107 Kbps
Channel(s) : 2 channels
Sampling rate : 48.0 KHz
Resolution : 16 bits
Stream size : 92.4 MiB (12%)
Alignment : Aligned on interleaves
Interleave, duration : 24 ms (0.60 video frame)
Interleave, preload duration : 478 ms










related torrents

Torrent name

health leech seeds Size
 


comments (0)

Main Menu