Other

Monk Staffel 2 DVDRip XviD

  • Download 5x Faster
  • Download torrent
  • Direct Download
  • Rate this torrent +  |  -
Monk Staffel 2 DVDRip XviD

Free and Direct Download with Usenet.nl 300GB+ free


Torrent info

Name:Monk Staffel 2 DVDRip XviD

Total Size: 5.77 GB

Magnet: Magnet Link

Seeds: 0

Leechers: 0

Stream: Watch Online @ Movie4u

Last Updated: 2010-02-25 22:03:06 (Update Now)

Torrent added: 2009-09-01 05:22:47





Torrent Files List


Monk.S02E01.Mr.Monk.geht.wieder.zur.Schule.avi (Size: 5.77 GB) (Files: 17)

 Monk.S02E01.Mr.Monk.geht.wieder.zur.Schule.avi

333.55 MB

 Monk.S02E02.Mr.Monk.faehrt.nach.Mexiko.avi

343.58 MB

 Monk.S02E03.Mr.Monk.und.das.Baseballfieber.avi

400.03 MB

 Monk.S02E04.Mr.Monk.geht.in.den.Zirkus.avi

408.72 MB

 Monk.S02E05.Mr.Monk.und.der.Aelteste.Mann.der.Welt.avi

372.86 MB

 Monk.S02E06.Mr.Monk.geht.mit.Sharona.ins.Theater.avi

320.70 MB

 Monk.S02E07.Mr.Monk.und.der.schlafende.Verdaechtige.avi

379.42 MB

 Monk.S02E08.Mr.Monk.ein.Playboy.und.viele.schoene.Maedchen.avi

402.02 MB

 Monk.S02E09.Mr.Monk.und.der.12.Geschworene.avi

331.98 MB

 Monk.S02E10.Mr.Monk.und.der.Zeitungsjunge.avi

356.09 MB

 Monk.S02E11.Mr.Monk.sein.Bruder.und.drei.Kuchen.avi

369.41 MB

 Monk.S02E12.Mr.Monk.und.der.Fernsehstar.avi

417.67 MB

 Monk.S02E13.Mr.Monk.und.die.entfuehrte.Grossmutter.avi

362.90 MB

 Monk.S02E14.Mr.Monk.und.die.Frau.des.Captains.avi

423.45 MB

 Monk.S02E15.Mr.Monk.heiratet.Sharona.avi

319.87 MB

 Monk.S02E16.Mr.Monk.landet.im.Gefaengnis.avi

367.48 MB

 Thumbs.db

8.50 KB
 

Announce URL: http://mstracker.hopto.org/announce.php

Torrent description


Torrent Name: Monk Staffel 2

-------------------------

--> Movie/Serie

Sprache: [X] Deutsch [ ] Englisch [ ] siehe Beschreibung

Video: [ ] HDTV [X] DVD [ ] TV/dTV [ ] TS [ ] Cam [ ] Sonstiges
Audio: [ ] AC3 [X] DVD [ ] TV/dTV [ ] LD [ ] Micro [ ] Sonstiges

Genre: Krimi


Untertitel: keine

Extras: keine



-------------------------
Beschreibung:
Seitdem seine Frau ermordet wurde, leidet der ehemalige Polizeiermittler
Adrian Monk unter starken Phobien. Monk besitzt zwar ein fotografisches
Gedaechtnis und auch seine Faehigkeiten, Faelle zu loesen sind einzigartig,
doch seine Marotten und Ticks kosten ihn den Job: Er wird von der
Polizei in San Francisco suspendiert. Animiert durch Freunde und mit
Hilfe der Krankenschwester Sharona Fleming versucht sich Monk als
freischaffender Detektiv. Ueber mangelnde Arbeit kann er sich nicht
beklagen, denn fuer seine ehemaligen Kollegen ist Monk das Ass im Aermel.
Sobald sein Ex-Chef Captain Stottlemeyer in einem vertrackten Mordfall
auf der Stelle tritt, gibt es nur einen, der den Taeter finden kann
- Monk. Monk ist der wohl schrulligste Detektiv der TV-Krimigeschichte.
Dieser Mann hat vor allem Angst: Vor Menschenmassen, vor Edelsteinen,
vor Hoehe, vor Dunkelheit und Dreck, vor Bakterien und sogar - vor
Milch! Das profane Vorhaben, Socken in einen Waeschetrockner zu stecken,
kann zu einer Panik-Attacke fuehren. Diese Angstzustaende verknuepfen
sich zudem mit einem Ordnungswahn: Alles muss immer an seinem gleichen
Platz sein. Seine Socken verpackt er in Klarsichthuellen, in seinem
Kleiderschrank finden sich ganze Garnituren des immer gleichen Hemdes
und Jackets. Kurzum: Dieser Mann - Monk - ist ein Lebenswerk fuer einen
Psychiater. Durch und durch kompliziert als Person, ist Monk aber
gleichzeitig auch ein hervorragender Detektiv. Seine kriminalistische
Brillanz ist bestechend. 'Monk' feierte am 12. Juli 2002 auf USA Network
Premiere und ist die zur Zeit erfolgreichste fuer das Kabelfernsehen
produzierte Serie in den Vereinigten Staaten.

-------------------------
Technische Details:
General
Format : AVI
Format/Info : Audio Video Interleave
File size : 334 MiB
Duration : 42mn 3s
Overall bit rate : 1109 Kbps
Writing application : VirtualDubMod 1.5.4.1 (build 2178/release)
Writing library : VirtualDub-MPEG2 build 23858/release

Video
Format : MPEG-4 Visual
Format profile : Streaming [email protected]
Format settings, BVOP : Yes
Format settings, QPel : No
Format settings, GMC : No warppoints
Format settings, Matrix : Custom
Codec ID : XVID
Codec ID/Hint : XviD
Duration : 42mn 3s
Bit rate : 907 Kbps
Width : 512 pixels
Height : 384 pixels
Display aspect ratio : 4/3
Frame rate : 25.000 fps
Resolution : 8 bits
Colorimetry : 4:2:0
Scan type : Progressive
Bits/(Pixel*Frame) : 0.185
Stream size : 273 MiB (82)
Writing library : XviD 1.2.0SMP (UTC 2006-01-08)

Audio
Format : AC-3
Format/Info : Audio Coding 3
Format profile : Dolby Digital
Codec ID : 2000
Duration : 42mn 3s
Bit rate mode : Constant
Bit rate : 192 Kbps
Channel(s) : 2 channels
Channel positions : L R
Sampling rate : 48.0 KHz
Stream size : 57.8 MiB (17)
Alignment : Split accross interleaves
Interleave, duration : 40 ms (1.00 video frame)
Interleave, preload duration : 500 ms

related torrents

Torrent name

health leech seeds Size
 

comments (0)

Main Menu