Other

Illegal Tender 2007 MULTISUBS DVDRip XviD Cocc

  • Download 5x Faster
  • Download torrent
  • Direct Download
  • Rate this torrent +  |  -
Illegal Tender 2007 MULTISUBS DVDRip XviD Cocc

Anonymous and Direct Download 300GB+ free


Torrent info

Name:Illegal Tender 2007 MULTISUBS DVDRip XviD Cocc

Total Size: 707.51 MB

Magnet: Magnet Link

Seeds: 0

Leechers: 0

Stream: Watch Online @ Movie4u

Last Updated: 2015-09-10 07:07:23 (Update Now)

Torrent added: 2009-09-01 05:09:29




Torrent Files List


Illegal.Tender.2007.MULTISUBS.DVDRip.XviD-Cocc.avi (Size: 707.51 MB) (Files: 2)

 Illegal.Tender.2007.MULTISUBS.DVDRip.XviD-Cocc.avi

699.33 MB

 Sub.rar

8.18 MB
 

tracker

leech seeds
 

Torrent description

Illegal Tender (2007)

After the gangsters who killed his father come to settle a score, a teenage
boy and his mother turn the tables on the killers - one Latino family's
quest for honor and revenge as the hunted become the hunters. Wilson DeLeon,
Jr. is an exceptional college student with an adoring girlfriend, doting
mother and a future full of promise. He has never wanted for anything, and he
has never been forced to stand his ground. But when ghosts from his mother's
past come back to haunt his present, he must defend his family ... and
quickly turn into the strong man his father prayed he'd become. Nothing could
stop Wilson's mother, Millie, from protecting her two boys. Forced to flee her
home after gangsters killed her husband, she made an oath to give her children
only the best. But all that changes when an enemy from the past catches up
with them. It's finally time to take action - and now, they're done running.
Weapons at the ready, Wilson, Jr. and Millie prepare for a final showdown with
the murderer who robbed him of a father and her of a husband. Now, in a battle
fueled by family ties and blood feuds, it will become very clear what happens
when anyone tries to come between this son and his mother.



http://www.imdb.com/title/tt0775488/



Subtitles En, Fr, De, Nl, Ar, Da, Fi, Is, No, Sv, Tr,



General
Complete name : Illegal.Tender.2007.MULTISUBS.DVDRip.XviD-Cocc.avi
Format : AVI
Format/Info : Audio Video Interleave
File size : 699 MiB
Duration : 1h 42mn
Overall bit rate : 950 Kbps

Video
Format : MPEG-4 Visual
Format profile : Streaming [email protected]
Format settings, BVOP : Yes
Format settings, QPel : No
Format settings, GMC : No warppoints
Format settings, Matrix : Default
Codec ID : XVID
Codec ID/Hint : XviD
Duration : 1h 42mn
Bit rate : 793 Kbps
Width : 640 pixels
Height : 272 pixels
Display aspect ratio : 2.35
Frame rate : 25.000 fps
Resolution : 24 bits
Colorimetry : 4:2:0
Scan type : Progressive
Bits/(Pixel*Frame) : 0.182
Stream size : 584 MiB (83%)
Writing library : XviD 1.1.2 (UTC 2006-11-01)

Audio
Format : MPEG Audio
Format version : Version 1
Format profile : Layer 3
Codec ID : 55
Codec ID/Hint : MP3
Duration : 1h 42mn
Bit rate mode : Variable
Bit rate : 144 Kbps
Minimum bit rate : 128 Kbps
Channel(s) : 2 channels
Sampling rate : 48.0 KHz
Resolution : 16 bits
Stream size : 106 MiB (15%)
Alignment : Aligned on interleaves
Interleave, duration : 24 ms (0.60 video frame)
Interleave, preload duration : 426 ms
Writing library : LAME3.92
Encoding settings : VBR (rh)

Created with: DP MediaInfo version 1.05 (c) by Dirk Paehl
MediaInfoLib - v0.7.7.6




related torrents

Torrent name

health leech seeds Size
 


comments (0)

Main Menu