Other

Gangs of New York 2002 720p BluRay DTS x264 ESiR[

  • Download 5x Faster
  • Download torrent
  • Direct Download
  • Rate this torrent +  |  -
Gangs of New York 2002 720p BluRay DTS x264 ESiR[

Free and Direct Download with Usenet 300GB+ free


Torrent info

Name:Gangs of New York 2002 720p BluRay DTS x264 ESiR[

Total Size: 7.87 GB

Magnet: Magnet Link

Seeds: 0

Leechers: 0

Stream: Watch Online @ Movie4u

Last Updated: 2016-01-01 08:34:05 (Update Now)

Torrent added: 2009-09-01 04:59:48




Torrent Files List


gangs-720p-dts.part01.rar (Size: 7.87 GB) (Files: 85)

 gangs-720p-dts.part01.rar

98.23 MB

 gangs-720p-dts.part02.rar

98.23 MB

 gangs-720p-dts.part03.rar

98.23 MB

 gangs-720p-dts.part04.rar

98.23 MB

 gangs-720p-dts.part05.rar

98.23 MB

 gangs-720p-dts.part06.rar

98.23 MB

 gangs-720p-dts.part07.rar

98.23 MB

 gangs-720p-dts.part08.rar

98.23 MB

 gangs-720p-dts.part09.rar

98.23 MB

 gangs-720p-dts.part10.rar

98.23 MB

 gangs-720p-dts.part11.rar

98.23 MB

 gangs-720p-dts.part12.rar

98.23 MB

 gangs-720p-dts.part13.rar

98.23 MB

 gangs-720p-dts.part14.rar

98.23 MB

 gangs-720p-dts.part15.rar

98.23 MB

 gangs-720p-dts.part16.rar

98.23 MB

 gangs-720p-dts.part17.rar

98.23 MB

 gangs-720p-dts.part18.rar

98.23 MB

 gangs-720p-dts.part19.rar

98.23 MB

 gangs-720p-dts.part20.rar

98.23 MB

 gangs-720p-dts.part21.rar

98.23 MB

 gangs-720p-dts.part22.rar

98.23 MB

 gangs-720p-dts.part23.rar

98.23 MB

 gangs-720p-dts.part24.rar

98.23 MB

 gangs-720p-dts.part25.rar

98.23 MB

 gangs-720p-dts.part26.rar

98.23 MB

 gangs-720p-dts.part27.rar

98.23 MB

 gangs-720p-dts.part28.rar

98.23 MB

 gangs-720p-dts.part29.rar

98.23 MB

 gangs-720p-dts.part30.rar

98.23 MB

 gangs-720p-dts.part31.rar

98.23 MB

 gangs-720p-dts.part32.rar

98.23 MB

 gangs-720p-dts.part33.rar

98.23 MB

 gangs-720p-dts.part34.rar

98.23 MB

 gangs-720p-dts.part35.rar

98.23 MB

 gangs-720p-dts.part36.rar

98.23 MB

 gangs-720p-dts.part37.rar

98.23 MB

 gangs-720p-dts.part38.rar

98.23 MB

 gangs-720p-dts.part39.rar

98.23 MB

 gangs-720p-dts.part40.rar

98.23 MB

 gangs-720p-dts.part41.rar

98.23 MB

 gangs-720p-dts.part42.rar

98.23 MB

 gangs-720p-dts.part43.rar

98.23 MB

 gangs-720p-dts.part44.rar

98.23 MB

 gangs-720p-dts.part45.rar

98.23 MB

 gangs-720p-dts.part46.rar

98.23 MB

 gangs-720p-dts.part47.rar

98.23 MB

 gangs-720p-dts.part48.rar

98.23 MB

 gangs-720p-dts.part49.rar

98.23 MB

 gangs-720p-dts.part50.rar

98.23 MB

 gangs-720p-dts.part51.rar

98.23 MB

 gangs-720p-dts.part52.rar

98.23 MB

 gangs-720p-dts.part53.rar

98.23 MB

 gangs-720p-dts.part54.rar

98.23 MB

 gangs-720p-dts.part55.rar

98.23 MB

 gangs-720p-dts.part56.rar

98.23 MB

 gangs-720p-dts.part57.rar

98.23 MB

 gangs-720p-dts.part58.rar

98.23 MB

 gangs-720p-dts.part59.rar

98.23 MB

 gangs-720p-dts.part60.rar

98.23 MB

 gangs-720p-dts.part61.rar

98.23 MB

 gangs-720p-dts.part62.rar

98.23 MB

 gangs-720p-dts.part63.rar

98.23 MB

 gangs-720p-dts.part64.rar

98.23 MB

 gangs-720p-dts.part65.rar

98.23 MB

 gangs-720p-dts.part66.rar

98.23 MB

 gangs-720p-dts.part67.rar

98.23 MB

 gangs-720p-dts.part68.rar

98.23 MB

 gangs-720p-dts.part69.rar

98.23 MB

 gangs-720p-dts.part70.rar

98.23 MB

 gangs-720p-dts.part71.rar

98.23 MB

 gangs-720p-dts.part72.rar

98.23 MB

 gangs-720p-dts.part73.rar

98.23 MB

 gangs-720p-dts.part74.rar

98.23 MB

 gangs-720p-dts.part75.rar

98.23 MB

 gangs-720p-dts.part76.rar

98.23 MB

 gangs-720p-dts.part77.rar

98.23 MB

 gangs-720p-dts.part78.rar

98.23 MB

 gangs-720p-dts.part79.rar

98.23 MB

 gangs-720p-dts.part80.rar

98.23 MB

 gangs-720p-dts.part81.rar

98.23 MB

 gangs-720p-dts.part82.rar

98.23 MB

 gangs-720p-dts.part83.rar

4.74 MB

 Gangs.of.New.York.2002.720p.BluRay.DTS.x264-ESiR.nfo

5.79 KB

 Gangs.of.New.York.2002.720p.BluRay.DTS.x264-ESiR.sfv

8.64 KB
 

tracker

leech seeds
 

Torrent description

Gangs of New York (2002)

GENRE: Crime / Drama / History
TAGLiNE: America Was Born In The Streets

PLOT: In 1863, Amsterdam Vallon returns to the Five Points area of
New York City seeking revenge against Bill the Butcher, his
father's killer

RATiNG: 7.3/10 (64,908 votes)
IMDB: http://imdb.com/title/tt0217505/

RELEASE.iNFO:

RELEASE.NAME: Gangs.of.New.York.2002.720p.BluRay.DTS.x264-ESiR
RELEASE.DATE: 17.08.2007
THEATRE.DATE: 20.12.2002
RUNTiME: 2:46:32
SiZE: 7.94 GB
ViDEO.CODEC: x264
FRAMERATE: 23.976
BiTRATE: 5314kbps
RESOLUTiON: 1280x544
AUDiO: English DTS 5.1 1.5Mbps
SUBTiTLES: A English
SOURCE: Gangs.of.New.York.1080p.Bluray.H264

MediaInfo:

Format: Matroska
File size: 7.94 GiB
Duration: 2h 46mn
Overall bit rate: 6 824 Kbps
Movie name: Gangs of New York (2002)
Encoded date: UTC 2007-08-17 16:48:19
Writing application: mkvmerge v2.0.2 ('You're My Flame') built on Feb 21 2007 23:40:55
Writing library: libebml v0.7.7 + libmatroska v0.8.1
Cover: Yes / Yes / Yes

Video
ID: 1
Format: AVC
Format/Info: Advanced Video Codec
Format profile: [email protected]
Format settings, CABAC: Yes
Format settings, ReFrames: 8 frames
Muxing mode: Container [email protected]
Codec ID: V_MPEG4/ISO/AVC
Duration: 2h 46mn
Bit rate: 5 151 Kbps
Nominal bit rate: 5 317 Kbps
Width: 1 280 pixels
Height: 544 pixels
Display aspect ratio: 2.35
Frame rate: 23.976 fps
Resolution: 24 bits
Colorimetry: 4:2:0
Scan type: Progressive
Bits/(Pixel*Frame): 0.309
Stream size: 5.99 GiB (75%)
Language: English

Audio
ID: 2
Format: DTS
Format/Info: Digital Theater Systems
Codec ID: A_DTS
Duration: 2h 46mn
Bit rate mode: Constant
Bit rate: 1 536 Kbps
Channel(s): 6 channels
Channel positions: Front: L C R, Surround: L R, LFE
Sampling rate: 48.0 KHz
Resolution: 16 bits
Video delay: 64ms
Stream size: 1.79 GiB (23%)
Language: English

Text
ID: 3
Format: ASS
Codec ID: S_TEXT/ASS
Codec ID/Info: Advanced Sub Station Alpha

Language: English

related torrents

Torrent name

health leech seeds Size
 

comments (0)

Main Menu