Brotherhood of the Wolf 2001 dvdrip xvid eng mp3

  • Download 5x Faster
  • Download torrent
  • Direct Download
  • Rate this torrent +  |  -
Brotherhood of the Wolf 2001 dvdrip xvid eng mp3

Free and Direct Download with 300GB+ free

Torrent info

Name:Brotherhood of the Wolf 2001 dvdrip xvid eng mp3

Total Size: 1.35 GB

Magnet: Magnet Link

Seeds: 0

Leechers: 2

Stream: Watch Online @ Movie4u

Last Updated: 2015-08-30 09:29:26 (Update Now)

Torrent added: 2008-08-19 06:38:02

Torrent Files List

2001.Brotherhood.of.the.Wolf.dvdrip.xvid.eng.mp3.avi (Size: 1.35 GB) (Files: 4)


1.35 GB


20.83 KB


4.12 KB

 Torrent downloaded from

0.05 KB


leech seeds

Torrent description

Brotherhood of the Wolf [2001]
Le Pacte des loups

This is the English dubbed version of the French film....pretty good...but the French hookers with the lowerclass, maybe Cockney, British accent is very odd to listen to....but fun for all that.

IMDb Number: tt0237534

IMDb Link:

IMDb Synopsis
In 1765 something was stalking the mountains of central France. A 'beast' that pounced on humans and animals with terrible ferocity. Indeed they beast became so notorious that the King of France dispatched envoys to find out what was happening and to kill the creature. By the end, the Beast of Gevaudan had killed over 100 people, to this day, no one is entirely sure what it was, wolf? hyena? or something supernatural? Whatever it was, shepherds had the same life-expectancy as the red-suited guys in 'Star Trek'. The Beast is a popular myth in France, albeit one rooted firmly in reality; somewhat surprisingly it is little known to the outside world, and perhaps incredibly it has never been made into a movie. Until now... Based on the true story of the Beast of the Gevaudan that terrorized France in the mid-XVIIIth century, the movie aims to tell first and explain afterwards. In the first part, a special envoy of the King of France, altogether biologist, explorer and philosopher, arrives in the Gevaudan region,
in the mountainous central part of France. The Beast has been attacking women and children for months and nobody has quite been able to harm it or even take a good look at it. In the second part, our hero Chevalier de Fronsac will not only have to fight the Beast, but also ignorance, bigotry and conspiracy and will rely on two women, one an aristocrat, the other a prostitute, as well as the enigmatic Mani, an Iroquois he met in New-France (Canada).


Samuel Le Bihan ... Grégoire de Fronsac
Vincent Cassel ... Jean-François de Morangias
Émilie Dequenne ... Marianne de Morangias
Monica Bellucci ... Sylvia
Jérémie Renier ... Thomas d'Apcher
Mark Dacascos ... Mani
Jean Yanne ... Le Comte de Morangias
Jean-François Stévenin ... Henri Sardis
Jacques Perrin ... Thomas d'Apcher (old)
Edith Scob ... Geneviève de Morangias
Johan Leysen ... Beauterne
Bernard Farcy ... Laffont
Hans Meyer ... Marquis d'Apcher
Virginie Darmon ... La Bavarde
Philippe Nahon ... Jean Chastel

Tech Stuff

Ripped with Magic DVD Ripper
Burn Test: NO

Format : AVI
Format/Info : Audio Video Interleave
File size : 1.35 GiB
Duration : 2h 30mn
Overal bit rate : 1282 Kbps

Format : MPEG-4 Visual
Format profile : [email protected]
Format settings, BVOP : No
Format settings, QPel : No
Format settings, GMC : 0 warppoint
Format settings, Matrix : Default
Codec ID : XVID
Codec ID/Hint : XviD
Duration : 2h 30mn
Bit rate : 1141 Kbps
Width : 640 pixels
Height : 480 pixels
Display aspect ratio : 4/3
Frame rate : 29.970 fps
Original frame rate : 29.969 fps
Resolution : 8 bits
Colorimetry : 4:2:0
Scan type : Progressive
Bits/(Pixel*Frame) : 0.124
Stream size : 1.20 GiB
Writing library : Magic0432

Format : MPEG Audio
Format version : Version 1 / Layer 3
Codec ID : 55
Codec ID/Hint : MP3
Duration : 2h 30mn
Bit rate mode : CBR
Bit rate : 128 Kbps
Channel(s) : 2 channels
Sampling rate : 44.1 KHz
Resolution : 16 bits
Stream size : 138 MiB

related torrents

Torrent name

health leech seeds Size

comments (0)

Main Menu