Other

Duplicity AC3 5,1 DVDRip[Eng]2009

  • Download 5x Faster
  • Download torrent
  • Direct Download
  • Rate this torrent +  |  -
Duplicity AC3 5,1 DVDRip[Eng]2009

Anonymous and Free Direct Download 300GB+


Torrent info

Name:Duplicity AC3 5,1 DVDRip[Eng]2009

Total Size: 1.37 GB

Magnet: Magnet Link

Seeds: 6

Leechers: 3

Stream: Watch Online @ Movie4u

Last Updated: 2010-09-24 21:59:29 (Update Now)

Torrent added: 2009-09-01 04:52:30



VPN For Torrents

Torrent Files List


Duplicity-AC3-5,1-DVDRip[Eng]2009-CD1.jpg (Size: 1.37 GB) (Files: 5)

 Duplicity-AC3-5,1-DVDRip[Eng]2009-CD1.jpg

444.41 KB

 Duplicity-AC3-5,1-DVDRip[Eng]2009-Front.jpg

1.15 MB

 Duplicity-AC3-5,1-DVDRip[Eng]2009.avi

1.36 GB

 Duplicity-AC3-5,1-DVDRip[Eng]2009.txt

2.34 KB

 Torrent downloaded from Demonoid.com.txt

0.05 KB
 

Announce URL: http://inferno.demonoid.com:3416/announce

Torrent description

http://www.imdb.com/title/tt1135487/

User Rating:6.6/10 - 6,115 votes

Crime/Romance/Thriller

Director:Tony Gilroy

Cast:Clive Owen/Julia Roberts/Tom Wilkinson/Paul Giamatti, and others.

Plot:
A pair of corporate spies who share a steamy past hook up to pull off the ultimate con job on their respective bosses.

Info:

Covers included.

General
Complete name : Duplicity-AC3-5,1-DVDRip[Eng]2009.avi
Format : AVI
Format/Info : Audio Video Interleave
File size : 1.36 GiB
Duration : 2h 5mn
Overall bit rate : 1 560 Kbps
Writing application : VirtualDubMod 1.5.4.1 (build 2178/release)
Writing library : VirtualDubMod build 2178/release

Video
Format : MPEG-4 Visual
Format profile : Streaming [email protected]
Format settings, BVOP : Yes
Format settings, QPel : No
Format settings, GMC : No warppoints
Format settings, Matrix : Default
Codec ID : XVID
Codec ID/Hint : XviD
Duration : 2h 5mn
Bit rate : 1 103 Kbps
Width : 640 pixels
Height : 272 pixels
Display aspect ratio : 2.35
Frame rate : 23.976 fps
Resolution : 24 bits
Colorimetry : 4:2:0
Scan type : Progressive
Bits/(Pixel*Frame) : 0.264
Stream size : 988 MiB (71%)
Writing library : XviD 50

Audio
Format : AC-3
Format/Info : Audio Coding 3
Codec ID : 2000
Duration : 2h 5mn
Bit rate mode : Constant
Bit rate : 448 Kbps
Channel(s) : 6 channels
Channel positions : Front: L C R, Surround: L R, LFE
Sampling rate : 48.0 KHz
Stream size : 401 MiB (29%)
Alignment : Split accross interleaves
Interleave, duration : 42 ms (1.00 video frame)
Interleave, preload duration : 500 ms

Enjoy...

related torrents

Torrent name

health leech seeds Size
 


comments (0)

Main Menu