Music Videos

Youngbloodz Presidential {XVID} [Solly4Life]

  • Download 5x Faster
  • Download torrent
  • Direct Download
  • Rate this torrent +  |  -
Youngbloodz Presidential {XVID} [Solly4Life]

Anonymous and Free Direct Download


Torrent info

Name:Youngbloodz Presidential {XVID} [Solly4Life]

Total Size: 85.01 MB

Magnet: Magnet Link

Seeds: 0

Leechers: 0

Stream: Watch Online @ Movie4u

Last Updated: 2010-12-12 19:14:12 (Update Now)

Torrent added: 2009-09-01 04:39:02



VPN For Torrents

Torrent Files List


Youngbloodz - Presidential {XVID} [Solly4Life].rar (Size: 85.01 MB) (Files: 1)

 Youngbloodz - Presidential {XVID} [Solly4Life].rar

85.01 MB
 

Announce URL: http://open.tracker.thepiratebay.org/announce

Torrent description

General
Complete name : Youngbloodz - Presidential {XVID} [Solly4Life].avi
Format : AVI
Format/Info : Audio Video Interleave
File size : 85.8 MiB
Duration : 4mn 52s
Overall bit rate : 2 459 Kbps
Writing library : Boilsoft Joiner build 2411/release

Video
Format : MPEG-4 Visual
Format profile : Streaming [email protected]
Format settings, BVOP : Yes
Format settings, QPel : No
Format settings, GMC : No warppoints
Format settings, Matrix : Default (H.263)
Muxing mode : Packed bitstream
Codec ID : XVID
Codec ID/Hint : XviD
Duration : 4mn 52s
Bit rate : 2 257 Kbps
Width : 640 pixels
Height : 480 pixels
Display aspect ratio : 4/3
Frame rate : 25.000 fps
Resolution : 24 bits
Colorimetry : 4:2:0
Scan type : Interlaced
Scan order : Bottom Field First
Bits/(Pixel*Frame) : 0.294
Stream size : 78.8 MiB (92%)
Writing library : XviD 1.1.2 (UTC 2006-11-01)

Audio
Format : MPEG Audio
Format version : Version 1
Format profile : Layer 3
Codec ID : 55
Codec ID/Hint : MP3
Duration : 4mn 52s
Bit rate mode : Constant
Bit rate : 192 Kbps
Channel(s) : 2 channels
Sampling rate : 48.0 KHz
Resolution : 16 bits
Stream size : 6.70 MiB (8%)
Alignment : Split accross interleaves
Interleave, duration : 40 ms (1.00 video frame)
Interleave, preload duration : 500 ms
Writing library : LAME3.97

related torrents

Torrent name

health leech seeds Size
 


comments (0)

Main Menu