Other

Brother 2000 {DvDRiP Xvid}[1337x][blackjesus]

  • Download 5x Faster
  • Download torrent
  • Direct Download
  • Rate this torrent +  |  -
Brother 2000 {DvDRiP Xvid}[1337x][blackjesus]

Anonymous and Free Direct Download 300GB+


Torrent info

Name:Brother 2000 {DvDRiP Xvid}[1337x][blackjesus]

Total Size: 702.32 MB

Magnet: Magnet Link

Seeds: 4

Leechers: 1

Stream: Watch Online @ Movie4u

Last Updated: 0000-00-00 00:00:00 (Update Now)

Torrent added: 2009-09-01 04:37:53



VPN For Torrents

Torrent Files List


brother.avi (Size: 702.32 MB) (Files: 5)

 brother.avi

702.31 MB

 brother.jpg

13.22 KB

 INFO.txt

2.74 KB

 BlAcKjEsUs.txt

0.39 KB

 1337x.org.txt

0.02 KB
 

Announce URL: http://genesis.1337x.org:1337/announce

Torrent description

Brother (2000)





http://www.youtube.com/watch?v=pa7JMGWOnp8
^^Trailer^^

http://www.imdb.com/title/tt0222851/
^^IMDB^^


Release Date:.....23 March 2001 (UK)
Genre:............Crime | Drama | Thriller
Tagline:..........The one guy you trust to get your back when a whole city's trying to put a bullet in it
Audio.............English


A Japanese Yakuza gangster is exiled to the United States. Takeshi settles in Los Angeles where his younger, half brother lives and finds that although the turf is new, the rules are still the same as they try to take over the local drug trade.


Video
Format : MPEG-4 Visual
Format profile : Streaming [email protected]
Format settings, BVOP : Yes
Format settings, QPel : No
Format settings, GMC : No warppoints
Format settings, Matrix : Default (H.263)
Muxing mode : Packed bitstream
Codec ID : XVID
Codec ID/Hint : XviD
Duration : 1h 48mn
Bit rate : 781 Kbps
Width : 608 pixels
Height : 336 pixels
Display aspect ratio : 16/9
Frame rate : 25.000 fps
Resolution : 24 bits
Colorimetry : 4:2:0
Scan type : Progressive
Bits/(Pixel*Frame) : 0.153
Stream size : 608 MiB (87%)
Writing library : XviD 1.2.1 (UTC 2008-12-04)

Audio
Format : MPEG Audio
Format version : Version 1
Format profile : Layer 3
Codec ID : 55
Codec ID/Hint : MP3
Duration : 1h 48mn
Bit rate mode : Variable
Bit rate : 108 Kbps
Channel(s) : 2 channels
Sampling rate : 48.0 KHz
Resolution : 16 bits
Stream size : 84.4 MiB (12%)
Alignment : Aligned on interleaves
Interleave, duration : 24 ms (0.60 video frame)
Interleave, preload duration : 366 ms

related torrents

Torrent name

health leech seeds Size
 


comments (0)

Main Menu