Other

Blow 2001 DvDrip marxus

  • Download 5x Faster
  • Download torrent
  • Direct Download
  • Rate this torrent +  |  -
Blow 2001 DvDrip marxus

Anonymous and Free Direct Download 300GB+


Torrent info

Name:Blow 2001 DvDrip marxus

Total Size: 702.69 MB

Magnet: Magnet Link

Seeds: 0

Leechers: 0

Stream: Watch Online @ Movie4u

Last Updated: 2011-09-26 00:50:35 (Update Now)

Torrent added: 2009-09-01 04:35:16



VPN For Torrents

Torrent Files List


Blow 2001 DvDrip - marxus.avi (Size: 702.69 MB) (Files: 2)

 Blow 2001 DvDrip - marxus.avi

702.69 MB

 Torrent downloaded from Demonoid.com.txt

0.05 KB
 

Announce URL: http://tracker.publicbt.com/announce

Torrent description

General
Complete name : Blow 2001 DvDrip - marxus.avi
Format : AVI
Format/Info : Audio Video Interleave
File size : 703 MiB
Duration : 1h 58mn
Overall bit rate : 830 Kbps
Writing application : VirtualDubMod 1.5.4.1 (build 2178/release)
Writing library : VirtualDubMod build 2178/release

Video
ID : 0
Format : MPEG-4 Visual
Format profile : [email protected]
Format settings, BVOP : Yes
Format settings, QPel : No
Format settings, GMC : No warppoints
Format settings, Matrix : Custom
Codec ID : XVID
Codec ID/Hint : XviD
Duration : 1h 58mn
Bit rate : 701 Kbps
Width : 608 pixels
Height : 256 pixels
Display aspect ratio : 2.35
Frame rate : 25.000 fps
Resolution : 24 bits
Colorimetry : 4:2:0
Scan type : Progressive
Bits/(Pixel*Frame) : 0.180
Stream size : 593 MiB (84%)
Writing library : XviD 1.2.0.dev47 (UTC 2006-11-01)

Audio
ID : 1
Format : MPEG Audio
Format version : Version 1
Format profile : Layer 3
Codec ID : 55
Codec ID/Hint : MP3
Duration : 1h 58mn
Bit rate mode : Variable
Bit rate : 117 Kbps
Nominal bit rate : 128 Kbps
Channel(s) : 2 channels
Sampling rate : 48.0 KHz
Resolution : 16 bits
Stream size : 98.6 MiB (14%)
Alignment : Aligned on interleaves
Interleave, duration : 24 ms (0.60 video frame)
Interleave, preload duration : 158 ms
Writing library : LAME3.97
Encoding settings : -m j -V 4 -q 2 -lowpass 17 --abr 128
Language : English

related torrents

Torrent name

health leech seeds Size

Blow [2001] Dvdrip

0 1 699.77 MB 0
 


comments (0)

Main Menu