Other

Assault On Precinct 13 1976 DVDRip XviD [

  • Download 5x Faster
  • Download torrent
  • Direct Download
  • Rate this torrent +  |  -
Assault On Precinct 13 1976 DVDRip XviD [

Download FREE And Anonymously


Torrent info

Name:Assault On Precinct 13 1976 DVDRip XviD [

Total Size: 697.27 MB

Magnet: Magnet Link

Seeds: 0

Leechers: 0

Stream: Watch Full Movie @ Movie4u

Last Updated: 2010-09-29 19:20:51 (Update Now)

Torrent added: 2009-09-01 04:31:40



VPN For Torrents

Torrent Files List


Assault On Precinct 13.nfo (Size: 697.27 MB) (Files: 51)

 Assault On Precinct 13.nfo

2.16 KB

 Assault On Precinct 13.part01.rar

14.31 MB

 Assault On Precinct 13.part02.rar

14.31 MB

 Assault On Precinct 13.part03.rar

14.31 MB

 Assault On Precinct 13.part04.rar

14.31 MB

 Assault On Precinct 13.part05.rar

14.31 MB

 Assault On Precinct 13.part06.rar

14.31 MB

 Assault On Precinct 13.part07.rar

14.31 MB

 Assault On Precinct 13.part08.rar

14.31 MB

 Assault On Precinct 13.part09.rar

14.31 MB

 Assault On Precinct 13.part10.rar

14.31 MB

 Assault On Precinct 13.part11.rar

14.31 MB

 Assault On Precinct 13.part12.rar

14.31 MB

 Assault On Precinct 13.part13.rar

14.31 MB

 Assault On Precinct 13.part14.rar

14.31 MB

 Assault On Precinct 13.part15.rar

14.31 MB

 Assault On Precinct 13.part16.rar

14.31 MB

 Assault On Precinct 13.part17.rar

14.31 MB

 Assault On Precinct 13.part18.rar

14.31 MB

 Assault On Precinct 13.part19.rar

14.31 MB

 Assault On Precinct 13.part20.rar

14.31 MB

 Assault On Precinct 13.part21.rar

14.31 MB

 Assault On Precinct 13.part22.rar

14.31 MB

 Assault On Precinct 13.part23.rar

14.31 MB

 Assault On Precinct 13.part24.rar

14.31 MB

 Assault On Precinct 13.part25.rar

14.31 MB

 Assault On Precinct 13.part26.rar

14.31 MB

 Assault On Precinct 13.part27.rar

14.31 MB

 Assault On Precinct 13.part28.rar

14.31 MB

 Assault On Precinct 13.part29.rar

14.31 MB

 Assault On Precinct 13.part30.rar

14.31 MB

 Assault On Precinct 13.part31.rar

14.31 MB

 Assault On Precinct 13.part32.rar

14.31 MB

 Assault On Precinct 13.part33.rar

14.31 MB

 Assault On Precinct 13.part34.rar

14.31 MB

 Assault On Precinct 13.part35.rar

14.31 MB

 Assault On Precinct 13.part36.rar

14.31 MB

 Assault On Precinct 13.part37.rar

14.31 MB

 Assault On Precinct 13.part38.rar

14.31 MB

 Assault On Precinct 13.part39.rar

14.31 MB

 Assault On Precinct 13.part40.rar

14.31 MB

 Assault On Precinct 13.part41.rar

14.31 MB

 Assault On Precinct 13.part42.rar

14.31 MB

 Assault On Precinct 13.part43.rar

14.31 MB

 Assault On Precinct 13.part44.rar

14.31 MB

 Assault On Precinct 13.part45.rar

14.31 MB

 Assault On Precinct 13.part46.rar

14.31 MB

 Assault On Precinct 13.part47.rar

14.31 MB

 Assault On Precinct 13.part48.rar

14.31 MB

 Assault On Precinct 13.part49.rar

10.62 MB

 Assault On Precinct 13.sfv

5.72 KB
 

Announce URL: http://tracker.ilovetorrents.com/announce.php

Torrent description

In Los Angeles, the street gangs unite and declare war to the police. Meanwhile, a father stops his car in a suburb and his daughter goes to an ice-cream truck to buy a vanilla ice-cream. She is murdered in cold blood by a member of one gang. The father follows the guy, kills him with many shots and runs to the Precinct 13. The policeman Bishop has just assumed the police station, which is not in operation but waiting to be closed on the next morning. With him, there are two women: the telephone operator and Leigh. A few moments before the arrival of the shocked father, a bus transporting three prisoners had stopped there and the escort policemen requested cells to lock the prisoners while waiting for a doctor for one of them that is ill. Suddenly the precinct is under siege and violent attack of street gangs.



Format : AVI
Format/Info : Audio Video Interleave
File size : 697 MiB
Duration : 1h 27mn
Overall bit rate : 1 119 Kbps
Writing application : FairUse Wizard - http://fairusewizard.com
Writing library : The best and REALLY easy backup tool

Video
Format : MPEG-4 Visual
Format profile : Streaming [email protected]
Format settings, BVOP : Yes
Format settings, QPel : No
Format settings, GMC : No warppoints
Format settings, Matrix : Default
Muxing mode : Packed bitstream
Codec ID : XVID
Codec ID/Hint : XviD
Duration : 1h 27mn
Bit rate : 981 Kbps
Width : 688 pixels
Height : 320 pixels
Display aspect ratio : 2.2
Frame rate : 25.000 fps
Resolution : 24 bits
Colorimetry : 4:2:0
Scan type : Progressive
Bits/(Pixel*Frame) : 0.178
Stream size : 611 MiB (88%)
Writing library : XviD 1.2.0.dev47 (UTC 2006-11-01)

Audio
Format : MPEG Audio
Format version : Version 1
Format profile : Layer 3
Codec ID : 55
Codec ID/Hint : MP3
Duration : 1h 27mn
Bit rate mode : Constant
Bit rate : 128 Kbps
Minimum bit rate : 128 Kbps
Channel(s) : 2 channels
Sampling rate : 48.0 KHz
Resolution : 16 bits
Stream size : 79.8 MiB (11%)
Alignment : Aligned on interleaves
Interleave, duration : 40 ms (1.00 video frame)
Interleave, preload duration : 504 ms
Writing library : LAME3.97b
Encoding settings : CBR

Link: http://www.imdb.com/title/tt0074156/

related torrents

Torrent name

health leech seeds Size
 


comments (0)

Main Menu

 

script data-cfasync="false" src="//d2ghscazvn398x.cloudfront.net/?cshgd=690275">