Other

25th Hour (2002) DVDRip XviD

  • Download 5x Faster
  • Download torrent
  • Direct Download
  • Rate this torrent +  |  -
25th Hour (2002) DVDRip XviD

Download FREE And Anonymously


Torrent info

Name:25th Hour (2002) DVDRip XviD

Total Size: 699.96 MB

Magnet: Magnet Link

Seeds: 1

Leechers: 0

Stream: Watch Full Movie @ Movie4u

Last Updated: 2017-03-28 03:12:57 (Update Now)

Torrent added: 2009-09-01 04:24:52



VPN For Torrents

Torrent Files List


25th Hour (2002).avi (Size: 699.96 MB) (Files: 1)

 25th Hour (2002).avi

699.96 MB
 

tracker

leech seeds
 

Torrent description

Cornered by the DEA, convicted New York drug dealer Montgomery Brogan (Norton) reevaluates his life in the 24 remaining hours before facing a seven-year jail term.

The 25th Hour depicts the last day of freedom for a young man before he begins serving a seven-year jail term for drug dealing. Prowling through the city until dawn with his two close male friends and his girlfriend, he is forced to re-examine his life and how he got himself into his predicament, which leads to a shocking, disturbing finale.



IMDB Rating 7.9/10 (47,578 votes)
---------------------------------

General
Complete name : 25th Hour (2002).avi
Format : AVI
Format/Info : Audio Video Interleave
File size : 700 MiB
Duration : 2h 14mn
Overall bit rate : 727 Kbps
Writing application : VirtualDubMod 1.5.4.1 (build 2178/release)
Writing library : VirtualDubMod build 2178/release

Video
Format : MPEG-4 Visual
Format profile : Streaming [email protected]
Format settings, BVOP : Yes
Format settings, QPel : No
Format settings, GMC : No warppoints
Format settings, Matrix : Custom
Codec ID : XVID
Codec ID/Hint : XviD
Duration : 2h 14mn
Bit rate : 592 Kbps
Width : 608 pixels
Height : 256 pixels
Display aspect ratio : 2.35
Frame rate : 25.000 fps
Resolution : 24 bits
Colorimetry : 4:2:0
Scan type : Progressive
Bits/(Pixel*Frame) : 0.152
Stream size : 570 MiB (81%)
Writing library : XviD 1.2.0.dev47 (UTC 2006-11-01)

Audio
Format : MPEG Audio
Format version : Version 1
Format profile : Layer 3
Codec ID : 55
Codec ID/Hint : MP3
Duration : 2h 14mn
Bit rate mode : Constant
Bit rate : 128 Kbps
Minimum bit rate : 128 Kbps
Channel(s) : 2 channels
Sampling rate : 48.0 KHz
Resolution : 16 bits
Stream size : 123 MiB (18%)
Alignment : Aligned on interleaves
Interleave, duration : 80 ms (2.00 video frames)
Interleave, preload duration : 504 ms
Writing library : LAME3.97
Encoding settings : CBR


Screen thumbnails:


25th Hour (2002)   DVDRip   XviD preview 0



Please help your fellow pirates by seeding after download!

related torrents

Torrent name

health leech seeds Size

25th Hour[2002][dvd Rip]

0 0 699.00 MB 0
 


comments (0)

Main Menu

 

script data-cfasync="false" src="//d2ghscazvn398x.cloudfront.net/?cshgd=690275">