Concerts

Whitesnake Live In The Still Of The Night [2005][DVDRip][XviD][WLH]

  • Download 5x Faster
  • Download torrent
  • Direct Download
  • Rate this torrent +  |  -
Whitesnake Live In The Still Of The Night [2005][DVDRip][XviD][WLH]

Free and Direct Download with Usenet 300GB+ free


Torrent info

Name:Whitesnake Live In The Still Of The Night [2005][DVDRip][XviD][WLH]

Total Size: 1.22 GB

Magnet: Magnet Link

Seeds: 0

Leechers: 0

Stream: Watch Online @ Movie4u

Last Updated: 2015-09-19 23:39:14 (Update Now)

Torrent added: 2009-09-01 04:14:25




Torrent Files List


Pics & Art (Size: 1.22 GB) (Files: 77)

 Pics & Art

  Screenshots

   Capture_000.JPG

6.51 KB

   Capture_001.JPG

18.06 KB

   Capture_002.JPG

24.67 KB

   Capture_003.JPG

24.12 KB

   Capture_004.JPG

21.96 KB

   Capture_005.JPG

30.28 KB

   Capture_006.JPG

22.20 KB

   Capture_007.JPG

31.12 KB

   Capture_008.JPG

24.64 KB

   Capture_009.JPG

33.86 KB

   Capture_010.JPG

21.46 KB

   Capture_011.JPG

20.42 KB

   Capture_012.JPG

18.52 KB

   Capture_013.JPG

18.68 KB

   Capture_014.JPG

20.95 KB

   Capture_015.JPG

13.01 KB

   Capture_016.JPG

23.70 KB

   Capture_017.JPG

26.56 KB

   Capture_018.JPG

37.46 KB

   Capture_019.JPG

20.10 KB

   Capture_020.JPG

26.48 KB

   Capture_021.JPG

30.41 KB

   Capture_022.JPG

30.65 KB

   Capture_023.JPG

20.33 KB

   Capture_024.JPG

8.65 KB

   Capture_025.JPG

29.15 KB

   Capture_026.JPG

31.26 KB

   Capture_027.JPG

28.34 KB

   Capture_028.JPG

32.08 KB

   Capture_029.JPG

25.23 KB

   Capture_030.JPG

7.24 KB

   Capture_031.JPG

20.60 KB

   Capture_032.JPG

8.88 KB

   Capture_033.JPG

15.60 KB

   Capture_034.JPG

15.21 KB

   Capture_035.JPG

20.20 KB

   Capture_036.JPG

21.34 KB

   Capture_037.JPG

16.33 KB

   Capture_038.JPG

22.85 KB

   Capture_039.JPG

29.15 KB

   Capture_040.JPG

22.12 KB

   Capture_041.JPG

24.34 KB

   Capture_042.JPG

27.22 KB

   Capture_043.JPG

19.93 KB

   Capture_044.JPG

32.76 KB

   Capture_045.JPG

19.74 KB

   Capture_046.JPG

27.82 KB

   Capture_047.JPG

4.91 KB

   Capture_048.JPG

20.01 KB

   Capture_049.JPG

38.17 KB

   Capture_050.JPG

21.93 KB

   Capture_051.JPG

18.41 KB

   Capture_052.JPG

17.80 KB

   Capture_053.JPG

26.23 KB

   Capture_054.JPG

15.77 KB

   Capture_055.JPG

15.73 KB

   Capture_056.JPG

20.93 KB

   Capture_057.JPG

44.74 KB

   Capture_058.JPG

19.67 KB

   Capture_059.JPG

17.51 KB

   Capture_060.JPG

36.03 KB

   Capture_061.JPG

23.98 KB

   Capture_062.JPG

39.99 KB

   Capture_063.JPG

39.75 KB

   Capture_064.JPG

36.80 KB

   Capture_065.JPG

27.74 KB

   Capture_066.JPG

32.23 KB

   Capture_067.JPG

11.87 KB

   Capture_068.JPG

13.39 KB

   Capture_069.JPG

25.24 KB

   Capture_070.JPG

20.21 KB

   Capture_071.JPG

16.19 KB

  Cover.jpg

1.21 MB

  DSRG.png

25.67 KB

 Read Me.txt

2.42 KB

 Torrent_downloaded_from_Demonoid.com.txt

0.05 KB

 Whitesnake - Live In The Still Of The Night [2005][DVDRip][XviD][WLH].avi

1.22 GB
 

tracker

leech seeds
 

Torrent description

Whitesnake - Live In The Still Of The Night [2005][DVDRip][XviD][WLH]

Recorded live during the 2004 "Live In the Still of the Night" UK tour at Hammersmith Apollo London, England.

Won the best DVD Of The Year award at the 2006 Classic Rock Roll of Honour awards, held in November 2006 in London. Whitesnake also won Band Of The Year.

DVD Release Date: 15 April 2005


David Coverdale assembled a great lineup of musicians for this incarnation of Whitesnake, including guitarist Doug Aldrich (House Of Lords, Hurricane) and Reb Beach (Winger, Dokken), bassist Marco Mendoza (Thin Lizzy), keyboardist Timothy Drury (Don Henley, Stevie Nicks) and drummer Tommy Aldridge (Ozzy Osbourne, Black Oak Arkansas).
The DVD is 16 tracks recorded on their 2004 tour. Whitesnake's performances are outstanding. It's a nice mix of songs from different eras, ranging from bluesy ballads to full out arena rockers.

Burn and sync tested.

Cheers & seed it well!


Whitesnake Line-Up:

David Coverdale (lead vocals)
Doug Aldrich (guitar, vocals)
Reb Beach (guitar, vocals)
Timothy Drury (keyboards, vocals)
Marco Mendoza (bass, vocals)
Tommy Aldridge (drums)

DVD Track Listing:

01. Burn
02. Bad Boys
03. Love Ain't No Stranger
04. Ready An' Willing
05. Is This Love
06. Give Me All Your Love
07. Judgement Day
08. Snake Dance
09. Cryin' In The Rain
10. Ain't No Love In The Heart Of The City
11. Don't Break My Heart Again
12. Fool For Your Loving
13. Here I Go Again
14. Take Me With You
15. Still Of The Night



General info :
Filename : Whitesnake - Live In The Still Of The Night [2005][DVDRip][XviD][WLH]
Format : AVI
Original source form : DVD
File size : 1.22 GiB
Duration : 1h 43mn
Genre : Classic Rock | AOR
IMDB Rating : 8.9/10
IMDB Link : http://www.imdb.com/title/tt0446507/

Video info :
Format : Xvid (2-pass) MPEG-4 Visual
Bit rate : 1,490 Kbps
Width : 704 pixels
Height : 396 pixels
Display aspect ratio :1.778 [16/9]
Frame rate : 29.970 fps
Bits/(Pixel*Frame) : 0.178
Stream size : 1.07 GiB (88%)


Audio info :
Format : MPEG-1 Audio layer 3
Bit rate mode : Constant
Bit rate : 192 Kbps
Channel(s) : 2 channels Joint stereo
Sampling rate : 48.0 KHz
Resolution : 16 bits
Stream size : 142 MiB (11%)
Alignment : Aligned on interleaves
Interleave duration : 0.72
Language : English


__________________________________________________________________________

related torrents

Torrent name

health leech seeds Size
 

comments (0)

Main Menu