Music Videos

The Sins Of Thy Beloved Perpetual Desolation Live DVDRip Xvid

  • Download 5x Faster
  • Download torrent
  • Direct Download
  • Rate this torrent +  |  -
The Sins Of Thy Beloved Perpetual Desolation Live DVDRip Xvid

Free and Direct Download with Usenet 300GB+ free


Torrent info

Name:The Sins Of Thy Beloved Perpetual Desolation Live DVDRip Xvid

Total Size: 699.86 MB

Magnet: Magnet Link

Seeds: 0

Leechers: 1

Stream: Watch Online @ Movie4u

Last Updated: 2011-04-01 10:06:59 (Update Now)

Torrent added: 2009-09-01 03:39:20




Torrent Files List


The Sins Of Thy Beloved - 2001 - Perpetual Desolation Live - DVDRip.avi (Size: 699.86 MB) (Files: 1)

 The Sins Of Thy Beloved - 2001 - Perpetual Desolation Live - DVDRip.avi

699.86 MB
 

Announce URL: http://tracker.torrentbox.com:2710/announce

Torrent description

-==The Sins Of Thy Beloved - 2001 - Perpetual Desolation Live - DVDRip==-


Format : AVI
Format/Info : Audio Video Interleave
File size : 700 MiB
Duration : 1h 0mn
Overall bit rate : 1 611 Kbps
Writing application : FairUse Wizard - http://fairusewizard.com

Video
Format : MPEG-4 Visual
Format profile : [email protected]
Codec ID : XVID
Duration : 1h 0mn
Bit rate : 1 471 Kbps
Width : 640 pixels
Height : 464 pixels
Display aspect ratio : 1.379
Frame rate : 29.970 fps
Resolution : 24 bits
Colorimetry : 4:2:0
Scan type : Progressive
Stream size : 639 MiB (91%)

Audio
Format : MPEG Audio
Format profile : Layer 3
Codec ID/Hint : MP3
Duration : 1h 0mn
Bit rate mode : Constant
Bit rate : 128 Kbps
Channel(s) : 2 channels
Sampling rate : 48.0 KHz
Resolution : 16 bits
Stream size : 55.6 MiB (8%)
Encoding settings : CBR

Seed: 256 kbps

related torrents

Torrent name

health leech seeds Size

The Sins Of Thy Beloved

0 0 119.00 MB 0
 

comments (0)

Main Menu