Music Videos

The Free Bees 9/11`s A Lie

  • Download 5x Faster
  • Download torrent
  • Direct Download
  • Rate this torrent +  |  -
The Free Bees 9/11`s A Lie

Anonymous and Direct Download 300GB+ free


Torrent info

Name:The Free Bees 9/11`s A Lie

Total Size: 21.16 MB

Magnet: Magnet Link

Seeds: 0

Leechers: 0

Stream: Watch Online @ Movie4u

Last Updated: 2010-07-28 23:51:40 (Update Now)

Torrent added: 2009-09-01 03:29:15




Torrent Files List


911s a lie.avi (Size: 21.16 MB) (Files: 1)

 911s a lie.avi

21.16 MB
 

Announce URL: http://tracker.thepiratebay.org/announce

Torrent description

The Free Bees - 911's A Lie.

Video
Format : xvid
Codec ID : xvid
Duration : 3mn 39s
Bit rate : 605 Kbps
Width : 320 pixels
Height : 240 pixels
Display aspect ratio : 4/3
Frame rate : 20.000 fps
Resolution : 24 bits
Bits/(Pixel*Frame) : 0.394
Stream size : 15.8 MiB (75%)

Audio
Format : MPEG Audio
Format version : Version 1
Format profile : Layer 3
Codec ID : 55
Codec ID/Hint : MP3
Duration : 3mn 39s
Bit rate mode : Constant
Bit rate : 192 Kbps
Channel(s) : 2 channels
Sampling rate : 48.0 KHz
Resolution : 16 bits
Stream size : 5.03 MiB (24%)
Alignment : Aligned on interleaves
Interleave, duration : 24 ms (0.48 video frame)
Writing library : LAME3.97

related torrents

Torrent name

health leech seeds Size
 


comments (0)

Main Menu