Music Videos

Sugababes Overloaded Singles Collection DVDRip (AC 3)

  • Download 5x Faster
  • Download torrent
  • Direct Download
  • Rate this torrent +  |  -
Sugababes Overloaded Singles Collection DVDRip (AC 3)

Free and Direct Download with Usenet.nl 300GB+ free


Torrent info

Name:Sugababes Overloaded Singles Collection DVDRip (AC 3)

Total Size: 735.82 MB

Magnet: Magnet Link

Seeds: 8

Leechers: 6

Stream: Watch Online @ Movie4u

Last Updated: 0000-00-00 00:00:00 (Update Now)

Torrent added: 2009-09-01 03:06:55





Torrent Files List


1. Freak Like Me.avi (Size: 735.82 MB) (Files: 14)

 1. Freak Like Me.avi

65.55 MB

 10. Easy.avi

38.64 MB

 11. Too Lost In You.avi

53.14 MB

 12. Run For Cover.avi

38.14 MB

 13. Hole In The Head.avi

92.52 MB

 14. Push The Button.avi

63.58 MB

 2. Round Round.avi

60.52 MB

 3. Red Dress.avi

38.22 MB

 4. In The Middle.avi

82.06 MB

 5. Stronger.avi

59.99 MB

 6. Shape.avi

32.36 MB

 7. Overload.avi

38.46 MB

 8. Caught In A Moment.avi

33.38 MB

 9. Ugly.avi

39.24 MB
 

Announce URL: http://tracker.thepiratebay.org/announce

Torrent description

1. Freak Like Me
2. Round Round
3. Red Dress
4. In The Middle
5. Stronger
6. Shape
7. Overloaded
8. Caught
9. Ugly
10.Easy
11.Too Lost In You
12.Run For Cover
13.Hole In The Head
14.Push The Button

All tracks were re-encoded at the same time and specific details will differ from track to track but here are the specs for track 1 which are typical of the set:

Format : AVI
Format/Info : Audio Video Interleave
Overall bit rate : 2 496 Kbps
Writing application : VirtualDubMod 1.5.4.1 (build 2178/release)
Writing library : VirtualDubMod build 2178/release

Video
Format : MPEG-4 Visual
Format profile : Streaming [email protected]
Format settings, BVOP : Yes
Format settings, QPel : No
Format settings, GMC : No warppoints
Format settings, Matrix : Custom
Codec ID : XVID
Codec ID/Hint : XviD
Bit rate : 2 040 Kbps
Width : 720 pixels
Height : 496 pixels
Display aspect ratio : 1.452
Frame rate : 29.970 fps
Resolution : 24 bits
Colorimetry : 4:2:0
Scan type : Progressive
Bits/(Pixel*Frame) : 0.191
Stream size : 53.6 MiB (82%)
Writing library : XviD 1.2.1 (UTC 2008-12-04)

Audio
Format : AC-3
Format/Info : Audio Coding 3
Codec ID : 2000
Duration : 3mn 40s
Bit rate mode : Constant
Bit rate : 448 Kbps
Channel(s) : 6 channels
Channel positions : Front: L C R, Surround: L R, LFE
Sampling rate : 48.0 KHz
Video delay : 8ms
Stream size : 11.8 MiB (18%)
Alignment : Split accross interleaves

related torrents

Torrent name

health leech seeds Size
 

comments (0)

Main Menu