Music Videos

Snoop Dogg feat Lil' Jon & Trina Step Yo Game Up {XVID} [Solly4Life]

  • Download 5x Faster
  • Download torrent
  • Direct Download
  • Rate this torrent +  |  -
Snoop Dogg feat Lil' Jon & Trina Step Yo Game Up {XVID} [Solly4Life]

Free and Direct Download with Usenet.nl 300GB+ free


Torrent info

Name:Snoop Dogg feat Lil' Jon & Trina Step Yo Game Up {XVID} [Solly4Life]

Total Size: 99.87 MB

Magnet: Magnet Link

Seeds: 0

Leechers: 0

Stream: Watch Online @ Movie4u

Last Updated: 0000-00-00 00:00:00 (Update Now)

Torrent added: 2009-09-01 02:56:31





Torrent Files List


Snoop Dogg feat. Lil' Jon & Trina - Step Yo Game Up {XVID} [Solly4Life].rar (Size: 99.87 MB) (Files: 1)

 Snoop Dogg feat. Lil' Jon & Trina - Step Yo Game Up {XVID} [Solly4Life].rar

99.87 MB
 

Announce URL:

Torrent description

Visit:
http://blog.bitcomet.com/9744199/


General
Complete name : Snoop Dogg feat. Lil' Jon & Trina - Step Yo Game Up {XVID} [Solly4Life].avi
Format : AVI
Format/Info : Audio Video Interleave
File size : 101 MiB
Duration : 5mn 43s
Overall bit rate : 2 465 Kbps
Writing library : Boilsoft Joiner build 2411/release

Video
Format : MPEG-4 Visual
Format profile : Streaming [email protected]
Format settings, BVOP : Yes
Format settings, QPel : No
Format settings, GMC : No warppoints
Format settings, Matrix : Default (H.263)
Muxing mode : Packed bitstream
Codec ID : XVID
Codec ID/Hint : XviD
Duration : 5mn 43s
Bit rate : 2 264 Kbps
Width : 640 pixels
Height : 480 pixels
Display aspect ratio : 4/3
Frame rate : 25.000 fps
Resolution : 24 bits
Colorimetry : 4:2:0
Scan type : Interlaced
Scan order : Bottom Field First
Bits/(Pixel*Frame) : 0.295
Stream size : 92.6 MiB (92%)
Writing library : XviD 1.1.2 (UTC 2006-11-01)

Audio
Format : MPEG Audio
Format version : Version 1
Format profile : Layer 3
Codec ID : 55
Codec ID/Hint : MP3
Duration : 5mn 43s
Bit rate mode : Constant
Bit rate : 192 Kbps
Channel(s) : 2 channels
Sampling rate : 48.0 KHz
Resolution : 16 bits
Stream size : 7.86 MiB (8%)
Alignment : Split accross interleaves
Interleave, duration : 40 ms (1.00 video frame)
Interleave, preload duration : 500 ms

related torrents

Torrent name

health leech seeds Size
 

comments (0)

Main Menu