Drama

The Razors Edge 1946 dvdrip xvid eng mp3 fixed

  • Download 5x Faster
  • Download torrent
  • Direct Download
  • Rate this torrent +  |  -
The Razors Edge 1946 dvdrip xvid eng mp3 fixed

Free and Direct Download with Usenet 300GB+ free


Torrent info

Name:The Razors Edge 1946 dvdrip xvid eng mp3 fixed

Total Size: 1.35 GB

Magnet: Magnet Link

Seeds: 0

Leechers: 0

Stream: Watch Online @ Movie4u

Last Updated: 2013-06-07 16:52:52 (Update Now)

Torrent added: 2008-08-19 03:34:32




Torrent Files List


1946.The.Razor's.Edge.dvdrip.xvid.eng.mp3.avi (Size: 1.35 GB) (Files: 4)

 1946.The.Razor's.Edge.dvdrip.xvid.eng.mp3.avi

1.35 GB

 poster.jpg

36.04 KB

 Read.Me.nfo

3.19 KB

 Torrent downloaded from Demonoid.com.txt

0.05 KB
 

Announce URL:

Torrent description

The Razor's Edge [1946]

IMDb Number: tt0038873
IMDb Link: http://www.imdb.com/title/tt0038873/

IMDb Synopsis

Well-to-do Chicagoan, Larry Darrell, breaks off his engagement to Isabel and travels the world seeking enlightenment, eventually finding his guru India. Isabel marries Gray, and following the crash of 1929, is invited to live in Paris with her rich, social climbing, Uncle Elliot. During a sojurn there, Larry, having attained his goal, is reunited with Isabel. While slumming one night Larry, Isabel and company are shocked to discover Sophie, a friend from Chicago. Having lost her husband and child in a tragic accident, Sophie is living the low-life with the help of drugs an abusive brute. Larry tries to rehabilitate her, but his efforts are sabotaged by Isabel who has tried in vain to reignite Larry's interest in her.


Cast


Tyrone Power ... Larry Darrell
Gene Tierney ... Isabel Bradley
John Payne ... Gray Maturin
Anne Baxter ... Sophie MacDonald
Clifton Webb ... Elliott Templeton
Herbert Marshall ... W. Somerset Maugham
Lucile Watson ... Louisa Bradley
Frank Latimore ... Bob MacDonald
Elsa Lanchester ... Miss Keith
Fritz Kortner ... Kosti
John Wengraf ... Joseph - Gray & Isabel's Butler
Cecil Humphreys ... Holy Man
Harry Pilcer ... Specialty Dancer
Cobina Wright Sr.... Princess Novemali


Tech Stuff

Ripped with Magic DVD Ripper 5.3.0

Burn Tested: No

Format : AVI
Format/Info : Audio Video Interleave
File size : 1.35 GiB
Duration : 2h 24mn
Overal bit rate : 1333 Kbps

Video
Format : MPEG-4 Visual
Format profile : [email protected]
Format settings, BVOP : No
Format settings, QPel : No
Format settings, GMC : 0 warppoint
Format settings, Matrix : Default
Codec ID : XVID
Codec ID/Hint : XviD
Duration : 2h 24mn
Bit rate : 1192 Kbps
Width : 640 pixels
Height : 480 pixels
Display aspect ratio : 4/3
Frame rate : 29.970 fps
Original frame rate : 29.969 fps
Resolution : 8 bits
Colorimetry : 4:2:0
Scan type : Progressive
Bits/(Pixel*Frame) : 0.129
Stream size : 1.21 GiB
Writing library : Magic0432

Audio
Format : MPEG Audio
Format version : Version 1 / Layer 3
Codec ID : 55
Codec ID/Hint : MP3
Duration : 2h 24mn
Bit rate mode : CBR
Bit rate : 128 Kbps
Channel(s) : 2 channels
Sampling rate : 44.1 KHz
Resolution : 16 bits
Stream size : 133 MiB

related torrents

Torrent name

health leech seeds Size

Ac/dc the Razors Edge

0 0 106.00 MB 0
 

comments (0)

Main Menu